百度云资源论坛

 找回密码
 立即注册
搜索

魔发精灵2 Trolls.World.Tour.2020.iCELANDiC.720p.BluRay.x264-RCDiVX 3.44GB

[复制链接]
百度云电影 发表于 2021-1-2 14:06:41 | 显示全部楼层 |阅读模式
-->
帖子完整标题:魔发精灵2 Trolls.World.Tour.2020.iCELANDiC.720p.BluRay.x264-RCDiVX 3.44GB




◎译  名 魔发精灵2/Trolls 2/丑娃2/巨魔2/巨魔娃娃2/魔发精灵:世界之旅/魔发精灵:唱游大世界(港)/魔发精灵2:世界巡演/魔发精灵唱游世界(台)
◎片  名 Trolls World Tour
◎年  代 2020
◎产  地 美国
◎类  别 动画 / 歌舞 / 奇幻 / 冒险
◎语  言 英语
◎上映日期 2020-04-10(美国) / 2020-08-21(中国大陆)
◎IMDb评分  6.1/10 from 15480 users
◎  
◎豆瓣评分 6.4/10 from 5982 users
◎ 
◎片  长 90分钟
◎导  演 沃尔特·道恩 Walt Dohrn / 戴维·P·史密斯 David P. Smith
◎编  剧 乔纳森·阿贝尔 Jonathan Aibel / 格伦·伯杰 Glenn Berger / 玛雅·福布斯 Maya Forbes / 华莱士·沃洛达斯基 Wallace Wolodarsky / 托马斯·丹姆 Thomas Dam / 伊丽莎白·蒂佩特 Elizabeth Tippet
◎主  演 安娜·肯德里克 Anna Kendrick
       贾斯汀·汀布莱克 Justin Timberlake
       蕾切尔·布鲁姆 Rachel Bloom
       詹姆斯·柯登 James Corden
       罗恩·芬奇斯 Ron Funches
       凯莉·克拉克森 Kelly Clarkson
       山姆·洛克威尔 Sam Rockwell
       詹米·多南 Jamie Dornan
       乔治·克林顿 George Clinton
       玛丽·布莱姬 Mary J. Blige
       基南·汤普森 Kenan Thompson
       昆瑙·内亚 Kunal Nayyar
       卡洛琳·耶尔特 Caroline Hjelt
       艾诺·贾沃 Aino Jawo
       弗卢拉·博格 Flula Borg
       伊丝特尔·迪恩 Ester Dean
       奥兹·奥斯朋 Ozzy Osbourne
       安东尼·拉莫斯 Anthony Ramos
       卡兰·索尼 Karan Soni
       查琳·易 Charlyne Yi
       朴秀荣 Joy
       姜涩琪 SeulGi
       佐伊·丹斯切尔 Zooey Deschanel
       克里斯托夫·梅兹-普莱瑟 Christopher Mintz-Plasse
       凯文·迈克尔·理查德森 Kevin Michael Richardson
       沃尔特·道恩 Walt Dohrn
       戴维·P·史密斯 David P. Smith
       达明·乔伊·伦道夫 Da'Vine Joy Randolph
       贝琪·索达罗 Betsy Sodaro
       马塞拉·伦茨·波普 Marcella Lentz-Pope
       钱斯勒 Chance The Rapper

◎标  签 动画 | 魔发精灵 | 梦工厂 | 美国 | 动画电影 | 歌舞 | 2020 | 美国电影

◎简  介

  讲述Poppy和Branch有了一个惊人的发现——除了他们之外,还有其他的魔发精灵世界,各部落的明显差异导致了巨大的冲突。当一种神秘的邪恶力量让所有的精灵世界都面临危险时,Poppy和Branch以及朋友们将踏上一段史诗般的探寻旅程,在长期不和的各精灵族群中创造和谐氛围,让大家团结起来对抗某种厄运。
  
  这部片的音乐风格将更加多样化,流行音乐、乡村音乐、嘻哈音乐、硬摇滚、骤停打击乐、电子舞曲等都有。
Video
ID                                       : 1
Format                                   : AVC
Format/Info                              : Advanced Video Codec
Format profile                           :
Format settings                          : CABAC / 12 Ref Frames
Format settings, CABAC                   : Yes
Format settings, Reference frames        : 12 frames
Codec ID                                 : V_MPEG4/ISO/AVC
Duration                                 : 1 h 30 min
Bit rate                                 : 4 571 kb/s
Width                                    : 1 280 pixels
Height                                   : 544 pixels
Display aspect ratio                     : 2.35:1
Frame rate mode                          : Constant
Frame rate                               : 23.976 (24000/1001/189150) FPS
Color space                              : YUV
Chroma subsampling                       : 4:2:0
Bit depth                                : 8 bits
Scan type                                : Progressive
Bits/(Pixel*Frame)                       : 0.274
Stream size                              : 2.90 GiB (85%)
Writing library                          : x264 core 161 r3027 4121277
Encoding settings                        : cabac=1 / ref=12 / deblock=1:1:1 / analyse=0x3:0x133 / me=umh / subme=9 / psy=1 / psy_rd=0.40:0.00 / mixed_ref=1 / me_range=16 / chroma_me=1 / trellis=2 / 8x8dct=1 / cqm=0 / deadzone=21,11 / fast_pskip=1 / chroma_qp_offset=-2 / threads=17 / lookahead_threads=1 / sliced_threads=0 / nr=0 / decimate=1 / interlaced=0 / bluray_compat=0 / constrained_intra=0 / bframes=5 / b_pyramid=2 / b_adapt=2 / b_bias=0 / direct=3 / weightb=1 / open_gop=0 / weightp=2 / keyint=250 / keyint_min=23 / scenecut=40 / intra_refresh=0 / rc_lookahead=60 / rc=crf / mbtree=1 / crf=15.5 / qcomp=0.60 / qpmin=0 / qpmax=69 / qpstep=4 / ip_ratio=1.40 / aq=1:0.60
Default                                  : Yes
Forced                                   : No

Audio
ID                                       : 2
Format                                   : AC-3
Format/Info                              : Audio Coding 3
Commercial name                          : Dolby Digital
Codec ID                                 : A_AC3
Duration                                 : 1 h 30 min
Bit rate mode                            : Constant
Bit rate                                 : 640 kb/s
Channel(s)                               : 6 channels
Channel layout                           : L R C LFE Ls Rs
Sampling rate                            : 48.0 kHz
Frame rate                               : 31.250 FPS (1536 SPF)
Compression mode                         : Lossy
Stream size                              : 415 MiB (12%)
Language                                 : Icelandic
Service kind                             : Complete Main
Default                                  : Yes
Forced                                   : No

Text #1
ID                                       : 3
Format                                   : PGS
Muxing mode                              : zlib
Codec ID                                 : S_HDMV/PGS
Codec ID/Info                            : Picture based subtitle format used on BDs/HD-DVDs
Duration                                 : 1 h 29 min
Bit rate                                 : 45.7 kb/s
Count of elements                        : 2736
Stream size                              : 29.4 MiB (1%)
Title                                    : Icelandic
Language                                 : Icelandic
Default                                  : No
Forced                                   : No

Text #2
ID                                       : 4
Format                                   : PGS
Muxing mode                              : zlib
Codec ID                                 : S_HDMV/PGS
Codec ID/Info                            : Picture based subtitle format used on BDs/HD-DVDs
Duration                                 : 1 h 29 min
Bit rate                                 : 40.5 kb/s
Count of elements                        : 2664
Stream size                              : 26.1 MiB (1%)
Title                                    : Danish
Language                                 : Danish
Default                                  : No
Forced                                   : No

Text #3
ID                                       : 5
Format                                   : PGS
Muxing mode                              : zlib
Codec ID                                 : S_HDMV/PGS
Codec ID/Info                            : Picture based subtitle format used on BDs/HD-DVDs
Duration                                 : 1 h 24 min
Bit rate                                 : 52.3 kb/s
Count of elements                        : 3034
Stream size                              : 31.5 MiB (1%)
Title                                    : English SDH
Language                                 : English
Default                                  : No
Forced                                   : No

Text #4
ID                                       : 6
Format                                   : PGS
Muxing mode                              : zlib
Codec ID                                 : S_HDMV/PGS
Codec ID/Info                            : Picture based subtitle format used on BDs/HD-DVDs
Duration                                 : 1 h 29 min
Bit rate                                 : 34.5 kb/s
Count of elements                        : 2352
Stream size                              : 22.2 MiB (1%)
Title                                    : Finnish
Language                                 : Finnish
Default                                  : No
Forced                                   : No

Text #5
ID                                       : 7
Format                                   : PGS
Muxing mode                              : zlib
Codec ID                                 : S_HDMV/PGS
Codec ID/Info                            : Picture based subtitle format used on BDs/HD-DVDs
Duration                                 : 1 h 29 min
Bit rate                                 : 31.9 kb/s
Count of elements                        : 2254
Stream size                              : 20.6 MiB (1%)
Title                                    : Norwegian
Language                                 : Norwegian
Default                                  : No
Forced                                   : No

Text #6
ID                                       : 8
Format                                   : PGS
Muxing mode                              : zlib
Codec ID                                 : S_HDMV/PGS
Codec ID/Info                            : Picture based subtitle format used on BDs/HD-DVDs
Duration                                 : 1 h 29 min
Bit rate                                 : 32.4 kb/s
Count of elements                        : 1660
Stream size                              : 20.8 MiB (1%)
Title                                    : Swedish
Language                                 : Swedish
Default                                  : No
Forced                                   : No

Text #7
ID                                       : 9
Format                                   : PGS
Muxing mode                              : zlib
Codec ID                                 : S_HDMV/PGS
Codec ID/Info                            : Picture based subtitle format used on BDs/HD-DVDs
Duration                                 : 1 h 29 min
Bit rate                                 : 793 b/s
Count of elements                        : 68
Stream size                              : 519 KiB (0%)
Title                                    : Danish
Language                                 : Danish
Default                                  : No
Forced                                   : No

Text #8
ID                                       : 10
Format                                   : PGS
Muxing mode                              : zlib
Codec ID                                 : S_HDMV/PGS
Codec ID/Info                            : Picture based subtitle format used on BDs/HD-DVDs
Duration                                 : 1 h 24 min
Bit rate                                 : 70.7 kb/s
Count of elements                        : 3201
Stream size                              : 42.9 MiB (1%)
Title                                    : English Commentary
Language                                 : English
Default                                  : No
Forced                                   : No

Menu
00:00:00.000                             : en:Chapter 01
00:05:12.771                             : en:Chapter 02
00:08:44.899                             : en:Chapter 03
00:12:51.729                             : en:Chapter 04
00:18:25.813                             : en:Chapter 05
00:22:58.836                             : en:Chapter 06
00:27:36.405                             : en:Chapter 07
00:30:34.583                             : en:Chapter 08
00:34:23.353                             : en:Chapter 09
00:38:27.138                             : en:Chapter 10
00:41:13.096                             : en:Chapter 11
00:46:19.276                             : en:Chapter 12
00:50:12.426                             : en:Chapter 13
00:54:22.926                             : en:Chapter 14
00:59:22.726                             : en:Chapter 15
01:03:39.274                             : en:Chapter 16
01:06:25.523                             : en:Chapter 17
01:10:18.297                             : en:Chapter 18
01:15:41.829                             : en:Chapter 19
01:21:19.917                             : en:Chapter 20
01:30:43.605                             : en:Chapter 21




                                                                                                                                                                                                        
                                                                                                                                                                                                                                                                                                                                                                                                                                                                                                                                                                                                                                                                                                                                                                                                                                                        
e70206644ff9f328948a50aeb3a60d6e.zip (35.25 KB, 下载次数: 0)

回复

使用道具 举报

小黑屋|百度云资源论坛 |网站地图

本网站所有资源来自网络,如无意中侵犯了您的权益,请发邮件至 [email protected],立即清除相关链接

GMT+8, 2021-1-20 11:58 , Processed in 0.097061 second(s), 23 queries .

Powered by Discuz! X3.2

© 2001-2013 Comsenz Inc.

快速回复 返回顶部 返回列表