百度云资源论坛

 找回密码
 立即注册
搜索

消失的情人節 My.Missing.Valentine.2020.CHINESE.1080p.BluRay.x264-HANDJO...

[复制链接]
百度云资源 发表于 2021-1-1 11:08:15 | 显示全部楼层 |阅读模式
-->
帖子完整标题:消失的情人節 My.Missing.Valentine.2020.CHINESE.1080p.BluRay.x264-HANDJOB 10.01GB




◎译  名 消失的情人节/My Missing Valentine
◎片  名 消失的情人節
◎年  代 2020
◎产  地 中国台湾
◎类  别 喜剧 / 爱情 / 奇幻
◎语  言 汉语普通话,闽南语
◎上映日期 2020-09-18(中国台湾)
◎IMDb评分  7.6/10 from 339 users
◎  
◎豆瓣评分 7.0/10 from 4199 users
◎ 
◎片  长 119分钟
◎导  演 陈玉勋 Yu-Hsun Chen
◎编  剧 陈玉勋 Yu-Hsun Chen
◎主  演 李霈瑜 Patty Lee
       刘冠廷 Kuan-ting Liu
       黑嘉嘉 Joanne Missingham
       周群达 Duncan Lai
       林美秀 Mei-shiu Lin
       马志翔 Umin Boya
       陈竹昇 Chu-sheng Chen
       庄益增 Cres Chuang
       曾威豪 Soso Tseng
       喜翔 Hsiang Hsi
       王自强 Tzu-Chiang Wang
       郭玄奇 Hsuan-Chi Kuo
       白静宜 Ching-i Pai
       黄连煜 Ayugo Huang
       顾宝明 Pao-Ming Ku
       海芬 Heaven Hai
       张再兴 Tsai-Hsing Chang
       白小樱 Xiao-Ying Bai
       林书宇 Tom Lin
       郭文颐 Berry Wen-i Kuo
       林美照 Mei-Chao Lin
       梁赫群 Vincent Liang
       郎祖筠 Tsu-Yun Lang

◎标  签 台湾 | 爱情 | 奇幻 | 2020 | 台灣電影 | 陈玉勋 | 中国台湾 | 台灣

◎简  介

  公车司机阿泰(刘冠廷/饰),是一个动作慢吞吞、连手表的时间、地震的感应都比别人慢的奇葩。他每天都会去邮局,找柜员杨晓淇(李霈瑜/饰)寄一封不知道给谁的平信。柜员杨晓淇和阿泰完全相反,是个凡事抢拍的超级急性子,唯独感情生活毫无进展,年近三十还是母胎单身。情人节前夕,杨晓淇被天菜阳光男刘老师(周群达Duncan/饰)搭讪,终于情窦初开的晓淇和刘老师天雷勾动地火;想不到一觉醒来,刘老师再无音讯、而且情人节居然已经过了?!每天来寄信的阿泰也再也没出现过...毫无记忆的杨晓淇,开始了一趟寻找真相的奇幻旅程...
Video
ID                                       : 1
Format                                   : AVC
Format/Info                              : Advanced Video Codec
Format profile                           :
Format settings                          : CABAC / 5 Ref Frames
Format settings, CABAC                   : Yes
Format settings, Reference frames        : 5 frames
Codec ID                                 : V_MPEG4/ISO/AVC
Duration                                 : 1 h 59 min
Bit rate                                 : 11.4 Mb/s
Width                                    : 1 920 pixels
Height                                   : 804 pixels
Display aspect ratio                     : 2.40:1
Frame rate mode                          : Constant
Frame rate                               : 24.000 FPS
Color space                              : YUV
Chroma subsampling                       : 4:2:0
Bit depth                                : 8 bits
Scan type                                : Progressive
Bits/(Pixel*Frame)                       : 0.307
Stream size                              : 9.46 GiB (94%)
Writing library                          : x264 core 157 r2935 545de2f
Encoding settings                        : cabac=1 / ref=5 / deblock=1:-3:-3 / analyse=0x3:0x133 / me=umh / subme=10 / psy=1 / psy_rd=1.00:0.00 / mixed_ref=1 / me_range=32 / chroma_me=1 / trellis=2 / 8x8dct=1 / cqm=0 / deadzone=21,11 / fast_pskip=0 / chroma_qp_offset=-2 / threads=25 / lookahead_threads=6 / sliced_threads=0 / nr=0 / decimate=0 / interlaced=0 / bluray_compat=0 / constrained_intra=0 / bframes=16 / b_pyramid=2 / b_adapt=2 / b_bias=0 / direct=3 / weightb=1 / open_gop=0 / weightp=2 / keyint=240 / keyint_min=24 / scenecut=40 / intra_refresh=0 / rc_lookahead=60 / rc=crf / mbtree=0 / crf=14.5 / qcomp=0.60 / qpmin=0 / qpmax=69 / qpstep=4 / vbv_maxrate=62500 / vbv_bufsize=78125 / crf_max=0.0 / nal_hrd=none / filler=0 / ip_ratio=1.30 / pb_ratio=1.20 / aq=2:1.00
Default                                  : Yes
Forced                                   : No
Color range                              : Limited
Color primaries                          : BT.709
Transfer characteristics                 : BT.709
Matrix coefficients                      : BT.709

Audio
ID                                       : 2
Format                                   : AC-3
Format/Info                              : Audio Coding 3
Commercial name                          : Dolby Digital
Codec ID                                 : A_AC3
Duration                                 : 1 h 59 min
Bit rate mode                            : Constant
Bit rate                                 : 640 kb/s
Channel(s)                               : 6 channels
Channel layout                           : L R C LFE Ls Rs
Sampling rate                            : 48.0 kHz
Frame rate                               : 31.250 FPS (1536 SPF)
Compression mode                         : Lossy
Stream size                              : 545 MiB (5%)
Language                                 : Chinese
Service kind                             : Complete Main
Default                                  : Yes
Forced                                   : No

Text #1
ID                                       : 3
Format                                   : UTF-8
Codec ID                                 : S_TEXT/UTF8
Codec ID/Info                            : UTF-8 Plain Text
Duration                                 : 1 h 49 min
Bit rate                                 : 44 b/s
Count of elements                        : 1663
Stream size                              : 36.1 KiB (0%)
Language                                 : English
Default                                  : Yes
Forced                                   : No

Text #2
ID                                       : 4
Format                                   : PGS
Muxing mode                              : zlib
Codec ID                                 : S_HDMV/PGS
Codec ID/Info                            : Picture based subtitle format used on BDs/HD-DVDs
Duration                                 : 1 h 49 min
Bit rate                                 : 39.9 kb/s
Count of elements                        : 2059
Stream size                              : 31.3 MiB (0%)
Language                                 : Chinese
Default                                  : No
Forced                                   : No

Menu
00:00:00.000                             : :Chapter 1
00:10:17.125                             : :Chapter 2
00:19:50.750                             : :Chapter 3
00:30:16.958                             : :Chapter 4
00:39:53.667                             : :Chapter 5
00:50:30.542                             : :Chapter 6
00:59:04.083                             : :Chapter 7
01:08:34.167                             : :Chapter 8
01:20:30.042                             : :Chapter 9
01:30:00.125                             : :Chapter 10
01:39:23.708                             : :Chapter 11
01:48:49.000                             : :Chapter 12




                                                                                                                                                                                                        
                                                                                                                                                                                                                                                                                                                                                                                                                                                                                                                                                                                                                                                                                                                                                                                                                                                        
06d1dd7133735c169823048cc34f3173.zip (50.73 KB, 下载次数: 0)

回复

使用道具 举报

小黑屋|百度云资源论坛 |网站地图

本网站所有资源来自网络,如无意中侵犯了您的权益,请发邮件至 [email protected],立即清除相关链接

GMT+8, 2021-1-27 12:55 , Processed in 0.097505 second(s), 23 queries .

Powered by Discuz! X3.2

© 2001-2013 Comsenz Inc.

快速回复 返回顶部 返回列表