百度云资源论坛

 找回密码
 立即注册
搜索

乱世英杰/乱世英雄 The.Plainsman.1936.720p.BluRay.x264-GUACAMOLE 5.67GB

[复制链接]
百度云电影 发表于 2021-1-1 10:42:47 | 显示全部楼层 |阅读模式
-->
帖子完整标题:乱世英杰/乱世英雄 The.Plainsman.1936.720p.BluRay.x264-GUACAMOLE 5.67GB




◎译  名 乱世英杰/乱世英雄
◎片  名 The Plainsman
◎年  代 1936
◎产  地 美国
◎类  别 爱情 / 传记 / 历史 / 战争 / 西部
◎语  言 英语
◎上映日期 1936-11-16
◎IMDb评分  6.9/10 from 1973 users
◎  
◎豆瓣评分 /10 from 0 users
◎ 
◎片  长 113 分钟
◎导  演 塞西尔·B·戴米尔 Cecil B. DeMille
◎编  剧 瓦尔德马·扬 Waldemar Young / 哈罗德·莱姆 Harold Lamb / 林恩·瑞格斯 Lynn Riggs / 简妮·麦克弗森 Jeanie Macpherson / Courtney Ryley Cooper / 格罗弗·琼斯 Grover Jones / Frank J. Wilstach
◎主  演 加里·库珀 Gary Cooper
       琪恩·亚瑟 Jean Arthur
       詹姆斯·埃利森 James Ellison
       约翰·米利扬 John Miljan
       埃德温·马克斯韦尔 Edwin Maxwell
       Paul Newlan
       Nelson McDowell
       沃尔特·麦克格莱尔 Walter McGrail
       吉姆·梅森 Jim Mason
       George MacQuarrie
       Leila McIntyre
       Billy McClain
       弗朗西斯·麦克唐纳 Francis McDonald
       Wilbur Mack
       Frank McGlynn Sr.
       波特·霍尔 Porter Hall
       保罗·哈维 Paul Harvey
       小本·亨德里克斯 Ben Hendricks Jr.
       Duke R. Lee
       查尔斯·裘德尔斯 Charles Judels
       William Humphrey
       诺贝·约翰逊 Noble Johnson
       Sydney Jarvis
       Jane Keckley
       Cecil Kellogg
       Wadsworth Harris
       Curtis Nero
       特德·奥利弗 Ted Oliver
       雷云酋长 Chief Thundercloud
       Arthur Singley
       Blackjack Ward
       布卢·华盛顿 Blue Washington
       Jack Walters
       Bruce Warren
       Greg Whitespear
       Harry Woods
       汉克·沃登 Hank Worden
       斯坦诺普·惠特克罗夫特 Stanhope Wheatcroft
       Robert Wilber
       Charles Stevens
       哈里·斯塔布斯 Harry Stubbs
       珀内尔·普拉特 Purnell Pratt
       巴德·奥斯博内 Bud Osborne
       Pat Moriarity
       Jimmy Phillips
       Gertrude Norman
       路易·纳托 Louis Natheaux
       Richard Robles
       Gail Sheridan
       Francis Sayles
       Don Rowan
       William Royle
       Philo McCullough
       Wesley Giraud
       乔纳森·哈勒 Jonathan Hale
       福兹·奈特 Fuzzy Knight
       蒙蒂·布卢 Monte Blue
       莱恩·钱德勒 Lane Chandler
       斯坦利·安德鲁斯 Stanley Andrews
       欧文·培根 Irving Bacon
       Earl Askam
       Lona Andre
       理查德·亚历山大 Richard Alexander
       Hooper Atchley
       亚瑟·埃尔斯沃斯 Arthur Aylesworth
       Sherwood Bailey
       安东尼·奎恩 Anthony Quinn
       道格拉斯·伍德 Douglas Wood
       丹尼斯·欧基夫 Dennis O'Keefe
       维克特·凡科尼 Victor Varconi
       弗莱德·科勒 Fred Kohler
       Oscar Rudolph
       弗兰克·艾伯森 Frank Albertson
       马克·斯特朗 Mark Strong (I)
       约翰·海姆斯 John Hyams
       查尔斯·比克福德 Charles Bickford
       弗朗西斯·福特 Francis Ford
       卡尔·米勒 Carl Miller
       Granville Bates
       Hank Bell
       Edward W. Borman
       George Ernest
       富兰克林·法纳姆 Franklyn Farnum
       Tex Driscoll
       Max Davidson
       巴德·法恩 Budd Fine
       弗兰克·埃利斯 Frank Ellis
       Edgar Dearing
       加比·海斯 George 'Gabby' Hayes
       Charles Herzinger
       Bryan 'Slim' Hightower
       Jack Clifford
       Bob Burns
       Jess Cavin
       Irene Bennett
       George Cleveland
       Sidney D'Albrook
       埃弗雷特·布朗 Everett Brown
       Frank Cordell
       海伦·伯吉斯 Helen Burgess
       Colin Chase
       戴维森·克拉克 Davison Clark
       巴克·康纳斯 Buck Connors
       大卫·克莱德 David Clyde
       Sonny Chorre
       Kenneth Gibson

◎标  签 西部 | 西部片 | 美国 | 1930s | 战争 | 传记 | Cecil_B_DeMille | 塞西尔·B·戴米尔

◎简  介

  With the end of the North American Civil War, the manufacturers of repeating rifles find a profitable means of making money selling the weapons to the North American Indians, using the front man John Lattimer to sell the rifles to the Cheyenne. While traveling in a stagecoach with Calamity Jane and William "Buffalo Bill" Cody and his young wife Louisa Cody that want to settle down in Hays City managing a hotel, Wild Bill Hickok finds the guide Breezy wounded by arrows and telling that the Indians are attacking a fort using repeating rifles. Hickok meets Gen. George A. Custer that assigns Buffalo Bill to guide a troop with ammunition to help the fort. Meanwhile the Cheyenne kidnap Calamity Jane, forcing Hickok to expose himself to rescue her.
Video
ID                                       : 1
Format                                   : AVC
Format/Info                              : Advanced Video Codec
Format profile                           :
Format settings                          : CABAC / 4 Ref Frames
Format settings, CABAC                   : Yes
Format settings, Reference frames        : 4 frames
Codec ID                                 : V_MPEG4/ISO/AVC
Duration                                 : 1 h 53 min
Bit rate                                 : 6 451 kb/s
Width                                    : 978 pixels
Height                                   : 720 pixels
Display aspect ratio                     : 4:3
Frame rate mode                          : Constant
Frame rate                               : 23.976 (24000/1001/189150) FPS
Color space                              : YUV
Chroma subsampling                       : 4:2:0
Bit depth                                : 8 bits
Scan type                                : Progressive
Bits/(Pixel*Frame)                       : 0.382
Stream size                              : 5.11 GiB (90%)
Writing library                          : x264 core 161 r3027 4121277
Encoding settings                        : cabac=1 / ref=4 / deblock=1:-3:-3 / analyse=0x3:0x133 / me=umh / subme=9 / psy=1 / psy_rd=1.00:0.00 / mixed_ref=1 / me_range=16 / chroma_me=1 / trellis=2 / 8x8dct=1 / cqm=0 / deadzone=21,11 / fast_pskip=0 / chroma_qp_offset=-2 / threads=22 / lookahead_threads=1 / sliced_threads=0 / nr=0 / decimate=1 / interlaced=0 / bluray_compat=0 / constrained_intra=0 / bframes=3 / b_pyramid=2 / b_adapt=2 / b_bias=0 / direct=3 / weightb=1 / open_gop=0 / weightp=2 / keyint=250 / keyint_min=23 / scenecut=40 / intra_refresh=0 / rc_lookahead=60 / rc=crf / mbtree=1 / crf=20.0 / qcomp=0.60 / qpmin=0 / qpmax=69 / qpstep=4 / ip_ratio=1.40 / aq=3:0.60
Default                                  : Yes
Forced                                   : No
Color range                              : Limited
Color primaries                          : BT.709
Transfer characteristics                 : BT.709
Matrix coefficients                      : BT.709

Audio
ID                                       : 2
Format                                   : FLAC
Format/Info                              : Free Lossless Audio Codec
Codec ID                                 : A_FLAC
Duration                                 : 1 h 53 min
Bit rate mode                            : Variable
Bit rate                                 : 675 kb/s
Channel(s)                               : 2 channels
Channel layout                           : L R
Sampling rate                            : 48.0 kHz
Frame rate                               : 11.719 FPS (4096 SPF)
Bit depth                                : 24 bits
Compression mode                         : Lossless
Stream size                              : 547 MiB (9%)
Writing library                          : libFLAC 1.2.1 (UTC 2007-09-17)
Language                                 : English
Default                                  : Yes
Forced                                   : No

Text #1
ID                                       : 3
Format                                   : PGS
Muxing mode                              : zlib
Codec ID                                 : S_HDMV/PGS
Codec ID/Info                            : Picture based subtitle format used on BDs/HD-DVDs
Duration                                 : 1 h 49 min
Bit rate                                 : 16.3 kb/s
Count of elements                        : 2871
Stream size                              : 12.7 MiB (0%)
Language                                 : English
Default                                  : No
Forced                                   : No

Text #2
ID                                       : 4
Format                                   : PGS
Muxing mode                              : zlib
Codec ID                                 : S_HDMV/PGS
Codec ID/Info                            : Picture based subtitle format used on BDs/HD-DVDs
Duration                                 : 1 h 50 min
Bit rate                                 : 16.8 kb/s
Count of elements                        : 2878
Stream size                              : 13.3 MiB (0%)
Language                                 : German
Default                                  : No
Forced                                   : No

Menu
00:00:00.000                             : en:00:00:00.000
00:07:26.529                             : en:00:07:26.529
00:14:13.895                             : en:00:14:13.895
00:19:39.970                             : en:00:19:39.970
00:26:55.906                             : en:00:26:55.906
00:37:11.312                             : en:00:37:11.312
00:43:12.381                             : en:00:43:12.381
00:56:21.587                             : en:00:56:21.587
01:05:59.998                             : en:01:05:59.998
01:13:54.930                             : en:01:13:54.930
01:20:47.176                             : en:01:20:47.176
01:27:37.085                             : en:01:27:37.085
01:35:27.013                             : en:01:35:27.013
01:45:14.350                             : en:01:45:14.350
01:52:31.536                             : en:01:52:31.536




                                                                                                                                                                                                        
                                                                                                                                                                                                                                                                                                                                                                                                                                                                                                                                                                                                                                                                                                                                                                                                                                                        
353aa4498f558e62db026bb6a3511fe1.zip (29.02 KB, 下载次数: 0)

回复

使用道具 举报

小黑屋|百度云资源论坛 |网站地图

本网站所有资源来自网络,如无意中侵犯了您的权益,请发邮件至 [email protected],立即清除相关链接

GMT+8, 2021-1-20 11:45 , Processed in 0.107628 second(s), 23 queries .

Powered by Discuz! X3.2

© 2001-2013 Comsenz Inc.

快速回复 返回顶部 返回列表