百度云资源论坛

 找回密码
 立即注册
搜索

死亡博士的复仇 Madhouse.1974.720p.BluRay.x264-GUACAMOLE 6.05GB

[复制链接]
百度云电影 发表于 2021-1-1 10:42:47 | 显示全部楼层 |阅读模式
-->
帖子完整标题:死亡博士的复仇 Madhouse.1974.720p.BluRay.x264-GUACAMOLE 6.05GB




◎译  名 死亡博士的复仇/Deathday/Madhouse/The Revenge of Dr. Death/死疯人院
◎片  名 Madhouse
◎年  代 1974
◎产  地 英国
◎类  别 悬疑 / 惊悚 / 恐怖 / 犯罪
◎语  言 英语
◎上映日期 
◎IMDb评分  6.3/10 from 3601 users
◎  
◎豆瓣评分 /10 from 0 users
◎ 
◎片  长 92 分钟
◎导  演 吉姆·克拉克 Jim Clark
◎编  剧 Angus Hall
◎主  演 文森特·普莱斯 Vincent Price
       彼得·库欣 Peter Cushing
       珍妮·李·莱特 Jenny Lee Wright
       Natasha Pyne
       Ian Thompson
       琳达·海登 Linda Hayden
       巴里·丹尼 Barry Dennen
       Robert Cawdron
       迈克尔·克雷兹 Michael Craze
       George Blackler
       罗伯特·夸里 Robert Quarry
       阿德琳妮·柯瑞 Adrienne Corri
       迈克尔·帕金森 Michael Parkinson

◎标  签 惊悚 | 恐怖 | 英国 | Vincent_Price | 文森特·普莱斯 | 悬疑 | VincentPrice | 英国电影

◎简  介

  A horror movie star returns to his famous role after years in a mental institution. But the character seems to be committing murders independent of his will.
Video
ID                                       : 1
Format                                   : AVC
Format/Info                              : Advanced Video Codec
Format profile                           :
Format settings                          : CABAC / 8 Ref Frames
Format settings, CABAC                   : Yes
Format settings, Reference frames        : 8 frames
Codec ID                                 : V_MPEG4/ISO/AVC
Duration                                 : 1 h 31 min
Bit rate                                 : 9 076 kb/s
Width                                    : 1 280 pixels
Height                                   : 720 pixels
Display aspect ratio                     : 16:9
Frame rate mode                          : Constant
Frame rate                               : 23.976 (24000/1001/189150) FPS
Color space                              : YUV
Chroma subsampling                       : 4:2:0
Bit depth                                : 8 bits
Scan type                                : Progressive
Bits/(Pixel*Frame)                       : 0.411
Stream size                              : 5.82 GiB (96%)
Writing library                          : x264 core 161 r3027 4121277
Encoding settings                        : cabac=1 / ref=8 / deblock=1:-3:-3 / analyse=0x3:0x133 / me=umh / subme=9 / psy=1 / psy_rd=1.00:0.00 / mixed_ref=1 / me_range=16 / chroma_me=1 / trellis=2 / 8x8dct=1 / cqm=0 / deadzone=21,11 / fast_pskip=0 / chroma_qp_offset=-2 / threads=22 / lookahead_threads=1 / sliced_threads=0 / nr=0 / decimate=1 / interlaced=0 / bluray_compat=0 / constrained_intra=0 / bframes=3 / b_pyramid=2 / b_adapt=2 / b_bias=0 / direct=3 / weightb=1 / open_gop=0 / weightp=2 / keyint=250 / keyint_min=23 / scenecut=40 / intra_refresh=0 / rc_lookahead=60 / rc=crf / mbtree=1 / crf=19.0 / qcomp=0.60 / qpmin=0 / qpmax=69 / qpstep=4 / ip_ratio=1.40 / aq=3:0.60
Default                                  : Yes
Forced                                   : No
Color range                              : Limited
Color primaries                          : BT.709
Transfer characteristics                 : BT.709
Matrix coefficients                      : BT.709

Audio #1
ID                                       : 2
Format                                   : FLAC
Format/Info                              : Free Lossless Audio Codec
Codec ID                                 : A_FLAC
Duration                                 : 1 h 31 min
Bit rate mode                            : Variable
Bit rate                                 : 218 kb/s
Channel(s)                               : 2 channels
Channel layout                           : L R
Sampling rate                            : 48.0 kHz
Frame rate                               : 11.719 FPS (4096 SPF)
Bit depth                                : 16 bits
Compression mode                         : Lossless
Stream size                              : 143 MiB (2%)
Writing library                          : libFLAC 1.2.1 (UTC 2007-09-17)
Language                                 : English
Default                                  : Yes
Forced                                   : No

Audio #2
ID                                       : 3
Format                                   : AAC LC
Format/Info                              : Advanced Audio Codec Low Complexity
Codec ID                                 : A_AAC-2
Duration                                 : 1 h 31 min
Bit rate                                 : 121 kb/s
Channel(s)                               : 2 channels
Channel layout                           : L R
Sampling rate                            : 48.0 kHz
Frame rate                               : 46.875 FPS (1024 SPF)
Compression mode                         : Lossy
Stream size                              : 79.5 MiB (1%)
Title                                    : Commentary with David De Valle and Phoef Sutton
Language                                 : English
Default                                  : No
Forced                                   : No

Text #1
ID                                       : 4
Format                                   : PGS
Muxing mode                              : zlib
Codec ID                                 : S_HDMV/PGS
Codec ID/Info                            : Picture based subtitle format used on BDs/HD-DVDs
Duration                                 : 1 h 30 min
Bit rate                                 : 18.5 kb/s
Count of elements                        : 1669
Stream size                              : 11.9 MiB (0%)
Title                                    : Vobsubs
Language                                 : English
Default                                  : No
Forced                                   : No

Text #2
ID                                       : 5
Format                                   : PGS
Muxing mode                              : zlib
Codec ID                                 : S_HDMV/PGS
Codec ID/Info                            : Picture based subtitle format used on BDs/HD-DVDs
Duration                                 : 1 h 30 min
Bit rate                                 : 22.1 kb/s
Count of elements                        : 1687
Stream size                              : 14.3 MiB (0%)
Title                                    : Vobsubs
Language                                 : German
Default                                  : No
Forced                                   : No

Menu
00:00:00.000                             : en:00:00:00.000
00:07:52.472                             : en:00:07:52.472
00:13:52.832                             : en:00:13:52.832
00:22:31.350                             : en:00:22:31.350
00:30:27.826                             : en:00:30:27.826
00:38:17.295                             : en:00:38:17.295
00:45:43.741                             : en:00:45:43.741
00:53:05.182                             : en:00:53:05.182
01:00:51.648                             : en:01:00:51.648
01:09:09.145                             : en:01:09:09.145
01:16:17.573                             : en:01:16:17.573
01:23:42.017                             : en:01:23:42.017




                                                                                                                                                                                                        
                                                                                                                                                                                                                                                                                                                                                                                                                                                                                                                                                                                                                                                                                                                                                                                                                                                        
50c040adc2c0c75153d49f88f599b562.zip (30.91 KB, 下载次数: 0)

回复

使用道具 举报

小黑屋|百度云资源论坛 |网站地图

本网站所有资源来自网络,如无意中侵犯了您的权益,请发邮件至 [email protected],立即清除相关链接

GMT+8, 2021-1-20 10:49 , Processed in 0.097542 second(s), 23 queries .

Powered by Discuz! X3.2

© 2001-2013 Comsenz Inc.

快速回复 返回顶部 返回列表