百度云资源论坛

 找回密码
 立即注册
搜索

入侵地球 Invasion.Planet.Earth.2019.1080p.BluRay.x264-GETiT 5.75GB

[复制链接]
百度云电影 发表于 2020-12-31 10:52:53 | 显示全部楼层 |阅读模式
-->
帖子完整标题:入侵地球 Invasion.Planet.Earth.2019.1080p.BluRay.x264-GETiT 5.75GB




◎译  名 入侵地球
◎片  名 Invasion Planet Earth
◎年  代 2019
◎产  地 英国
◎类  别 动作 / 科幻 / 冒险
◎语  言 英语
◎上映日期 2019-12-05(英国)
◎IMDb评分  3.3/10 from 804 users
◎  
◎豆瓣评分 /10 from 0 users
◎ 
◎片  长 98分钟
◎主  演 西蒙·海考克 Simon Haycock

◎标  签 科幻 | 美国 | 战争 | 英国 | 冒险

◎简  介

  After the death of his young daughter, Thomas Dunn is a man who has lost his faith. His life has crumbled and his confidence is shattered. Yet, on this day he wakes to discover that Mandy, his loving wife is finally pregnant again. Maybe this is their chance to move away from the tragedy of the past and for him to find his faith again. But also on this day a large alien mother-ship appears in the heavens and the people of earth are suddenly plagued with visions about the end of civilization. Tom and Mandy are split up as the mother-ship launches a massive alien fleet which attack the towns and cities of earth. Tom must look deep within himself to find not just his faith but the wisdom and strength to save the human race from the horrors that threaten them. However, first he must find Mandy, as he discovers that their new baby holds the key to the future of mankind. The battle lines are drawn and the final stance for Earth is about to begin.
Video
ID                                       : 1
Format                                   : AVC
Format/Info                              : Advanced Video Codec
Format profile                           :
Format settings                          : CABAC / 5 Ref Frames
Format settings, CABAC                   : Yes
Format settings, Reference frames        : 5 frames
Codec ID                                 : V_MPEG4/ISO/AVC
Duration                                 : 1 h 33 min
Bit rate                                 : 6 695 kb/s
Width                                    : 1 920 pixels
Height                                   : 798 pixels
Display aspect ratio                     : 2.40:1
Frame rate mode                          : Constant
Frame rate                               : 25.000 FPS
Color space                              : YUV
Chroma subsampling                       : 4:2:0
Bit depth                                : 8 bits
Scan type                                : Progressive
Bits/(Pixel*Frame)                       : 0.175
Stream size                              : 4.35 GiB (76%)
Writing library                          : x264 core 161 r3018 db0d417
Encoding settings                        : cabac=1 / ref=5 / deblock=1:-3:-3 / analyse=0x3:0x133 / me=umh / subme=9 / psy=1 / psy_rd=1.00:0.00 / mixed_ref=1 / me_range=16 / chroma_me=1 / trellis=2 / 8x8dct=1 / cqm=0 / deadzone=21,11 / fast_pskip=1 / chroma_qp_offset=-2 / threads=18 / lookahead_threads=1 / sliced_threads=0 / nr=0 / decimate=1 / interlaced=0 / bluray_compat=0 / constrained_intra=0 / bframes=3 / b_pyramid=2 / b_adapt=2 / b_bias=0 / direct=3 / weightb=1 / open_gop=0 / weightp=2 / keyint=250 / keyint_min=25 / scenecut=40 / intra_refresh=0 / rc_lookahead=60 / rc=crf / mbtree=1 / crf=17.0 / qcomp=0.60 / qpmin=0 / qpmax=69 / qpstep=4 / ip_ratio=1.40 / aq=3:0.80
Language                                 : English
Default                                  : Yes
Forced                                   : No
Color range                              : Limited
Matrix coefficients                      : BT.709

Audio
ID                                       : 2
Format                                   : DTS XLL
Format/Info                              : Digital Theater Systems
Commercial name                          : DTS-HD Master Audio
Codec ID                                 : A_DTS
Duration                                 : 1 h 33 min
Bit rate mode                            : Variable
Bit rate                                 : 2 148 kb/s
Channel(s)                               : 6 channels
Channel layout                           : C L R Ls Rs LFE
Sampling rate                            : 48.0 kHz
Frame rate                               : 93.750 FPS (512 SPF)
Bit depth                                : 16 bits
Compression mode                         : Lossless
Stream size                              : 1.40 GiB (24%)
Title                                    : dtsxll
Language                                 : English
Default                                  : Yes
Forced                                   : No

Menu
00:00:00.000                             : en:00:00:00.000
00:10:00.960                             : en:00:10:00.960
00:19:28.680                             : en:00:19:28.680
00:28:52.960                             : en:00:28:52.960
00:43:46.040                             : en:00:43:46.040
00:58:38.160                             : en:00:58:38.160
01:08:37.600                             : en:01:08:37.600
01:18:04.600                             : en:01:18:04.600




                                                                                                                                                                                                        
                                                                                                                                                                                                                                                                                                                                                                                                                                                                                                                                                                                                                                                                                                                                                                                                                                                        
1498ae6798753aff4383f06389b0794b.zip (29.47 KB, 下载次数: 0)

回复

使用道具 举报

小黑屋|百度云资源论坛 |网站地图

本网站所有资源来自网络,如无意中侵犯了您的权益,请发邮件至 [email protected],立即清除相关链接

GMT+8, 2021-1-27 12:02 , Processed in 0.099332 second(s), 23 queries .

Powered by Discuz! X3.2

© 2001-2013 Comsenz Inc.

快速回复 返回顶部 返回列表