百度云资源论坛

 找回密码
 立即注册
搜索

赫尔穆特·牛顿:边缘之框 Helmut.Newton.Frames.from.the.Edge.1989.720p... ...

[复制链接]
百度云资源 发表于 2020-12-31 10:27:02 | 显示全部楼层 |阅读模式
-->
帖子完整标题:赫尔穆特·牛顿:边缘之框 Helmut.Newton.Frames.from.the.Edge.1989.720p.BluRay.x264-GUACAMOLE 4.06GB




◎译  名 赫尔穆特·牛顿:边缘之框/Helmut Newton : Frames from the edge
◎片  名 Frames from the Edge
◎年  代 1989
◎产  地 西德
◎类  别 纪录片 / 传记
◎语  言 英语
◎上映日期 1989-06-28
◎IMDb评分  7.1/10 from 202 users
◎  
◎豆瓣评分 8.1/10 from 53 users
◎ 
◎片  长 USA: 95 分钟
◎主  演 坎迪斯·伯根 Candice Bergen
       蒂娜·布朗 Tina Brown
       凯瑟琳·德纳芙 Catherine Deneuve
       费·唐纳薇 Faye Dunaway
       罗伯特·埃文斯 Robert Evans
       卡尔·拉格菲尔德 Karl Lagerfeld
       赫尔穆特·牛顿 Helmut Newton
       夏洛特·兰普林 Charlotte Rampling
       西格妮·韦弗 Sigourney Weaver

◎标  签 纪录片 | 摄影 | 德国 | 传记 | 艺术 | HelmutNewton | 1989 | Photograpghy

◎简  介

  暂无相关剧情介绍
Video
ID                                       : 1
Format                                   : AVC
Format/Info                              : Advanced Video Codec
Format profile                           :
Format settings                          : CABAC / 8 Ref Frames
Format settings, CABAC                   : Yes
Format settings, Reference frames        : 8 frames
Codec ID                                 : V_MPEG4/ISO/AVC
Duration                                 : 1 h 39 min
Bit rate                                 : 5 375 kb/s
Width                                    : 960 pixels
Height                                   : 720 pixels
Display aspect ratio                     : 4:3
Frame rate mode                          : Constant
Frame rate                               : 29.970 (30000/1001/189150) FPS
Color space                              : YUV
Chroma subsampling                       : 4:2:0
Bit depth                                : 8 bits
Scan type                                : Progressive
Bits/(Pixel*Frame)                       : 0.259
Stream size                              : 3.75 GiB (92%)
Writing library                          : x264 core 161 r3027 4121277
Encoding settings                        : cabac=1 / ref=8 / deblock=1:-3:-3 / analyse=0x3:0x133 / me=umh / subme=9 / psy=1 / psy_rd=1.00:0.00 / mixed_ref=1 / me_range=16 / chroma_me=1 / trellis=2 / 8x8dct=1 / cqm=0 / deadzone=21,11 / fast_pskip=0 / chroma_qp_offset=-2 / threads=22 / lookahead_threads=1 / sliced_threads=0 / nr=0 / decimate=1 / interlaced=0 / bluray_compat=0 / constrained_intra=0 / bframes=3 / b_pyramid=2 / b_adapt=2 / b_bias=0 / direct=3 / weightb=1 / open_gop=0 / weightp=2 / keyint=250 / keyint_min=23 / scenecut=40 / intra_refresh=0 / rc_lookahead=60 / rc=crf / mbtree=1 / crf=17.0 / qcomp=0.60 / qpmin=0 / qpmax=69 / qpstep=4 / ip_ratio=1.40 / aq=3:0.60
Default                                  : Yes
Forced                                   : No
Color range                              : Limited
Color primaries                          : BT.709
Transfer characteristics                 : BT.709
Matrix coefficients                      : BT.709

Audio
ID                                       : 2
Format                                   : AC-3
Format/Info                              : Audio Coding 3
Commercial name                          : Dolby Digital
Codec ID                                 : A_AC3
Duration                                 : 1 h 39 min
Bit rate mode                            : Constant
Bit rate                                 : 448 kb/s
Channel(s)                               : 6 channels
Channel layout                           : L R C LFE Ls Rs
Sampling rate                            : 48.0 kHz
Frame rate                               : 31.250 FPS (1536 SPF)
Compression mode                         : Lossy
Stream size                              : 320 MiB (8%)
Language                                 : English
Service kind                             : Complete Main
Default                                  : Yes
Forced                                   : No

Text #1
ID                                       : 3
Format                                   : UTF-8
Codec ID                                 : S_TEXT/UTF8
Codec ID/Info                            : UTF-8 Plain Text
Duration                                 : 1 h 37 min
Bit rate                                 : 16 b/s
Count of elements                        : 283
Stream size                              : 12.1 KiB (0%)
Language                                 : English
Default                                  : Yes
Forced                                   : Yes

Text #2
ID                                       : 4
Format                                   : PGS
Muxing mode                              : zlib
Codec ID                                 : S_HDMV/PGS
Codec ID/Info                            : Picture based subtitle format used on BDs/HD-DVDs
Duration                                 : 1 h 37 min
Bit rate                                 : 8 818 b/s
Count of elements                        : 566
Stream size                              : 6.17 MiB (0%)
Title                                    : Forced
Language                                 : English
Default                                  : No
Forced                                   : No

Menu
00:00:00.000                             : en:00:00:00.000
00:11:41.801                             : en:00:11:41.801
00:22:40.759                             : en:00:22:40.759
00:31:01.126                             : en:00:31:01.126
00:42:35.153                             : en:00:42:35.153
00:50:29.894                             : en:00:50:29.894
00:58:05.615                             : en:00:58:05.615
01:08:22.498                             : en:01:08:22.498
01:17:22.004                             : en:01:17:22.004




                                                                                                                                                                                                        
                                                                                                                                                                                                                                                                                                                                                                                                                                                                                                                                                                                                                                                                                                                                                                                                                                                        
bc50c09d713d37f005ad39b464b2291d.zip (41.38 KB, 下载次数: 0)

回复

使用道具 举报

小黑屋|百度云资源论坛 |网站地图

本网站所有资源来自网络,如无意中侵犯了您的权益,请发邮件至 [email protected],立即清除相关链接

GMT+8, 2021-1-20 10:51 , Processed in 0.096231 second(s), 23 queries .

Powered by Discuz! X3.2

© 2001-2013 Comsenz Inc.

快速回复 返回顶部 返回列表