百度云资源论坛

 找回密码
 立即注册
搜索

我心蔚蓝 Blue.My.Mind.2017.720p.BluRay.x264-USURY 3.04GB

[复制链接]
百度云资源 发表于 2020-12-31 10:27:02 | 显示全部楼层 |阅读模式
-->
帖子完整标题:我心蔚蓝 Blue.My.Mind.2017.720p.BluRay.x264-USURY 3.04GB




◎译  名 我心蔚蓝
◎片  名 Blue My Mind
◎年  代 2017
◎产  地 瑞士
◎类  别 剧情 / 奇幻
◎语  言 瑞士德语
◎上映日期 2017-09-24(圣塞巴斯蒂安国际电影节)
◎IMDb评分  6.2/10 from 2180 users
◎  
◎豆瓣评分 6.6/10 from 1293 users
◎ 
◎片  长 97分钟
◎导  演 丽莎·布吕尔曼 Lisa Brühlmann
◎编  剧 丽莎·布吕尔曼 Lisa Brühlmann / 多米尼克·洛切尔 Dominik Locher
◎主  演 卢娜·韦德勒 Luna Wedler
       佐伊·帕斯提尔·赫斯泽恩 Zo? Pastelle Holthuizen
       莱古拉·格劳维莱尔 Regula Grauwiller
       乔治·沙雷格 Georg Scharegg
       卢·哈尔特纳 Lou Haltinner
       耶尔·迈尔 Yael Meier

◎标  签 美人鱼 | 奇幻 | 青春 | 魔幻 | 剧情 | 爱情 | 瑞士 | 畸变

◎简  介

  暑假前,15岁的米娅和她的父母搬到了齐富的郊区。她早就感到与父母疏远了,当她问她是否会被收养时,她的母亲变得很生气,但是没有回答。虽然米娅陷入了一个野生青少年的存在,试图应付这一切,她的身体开始发生奇怪的变化。首先,很难察觉到,但随后有一种力量把她赶出了头脑。在她的绝望中,她试图用性和毒品来麻痹自己,希望能阻止淹没她的浪潮。但是大自然更强大。

◎获奖情况

  第12届FIRST青年电影展 ?(2018)
  竞赛评委会大奖-长片类(提名) 丽莎·布吕尔曼
Video
ID                                       : 1
Format                                   : AVC
Format/Info                              : Advanced Video Codec
Format profile                           :
Format settings                          : CABAC / 12 Ref Frames
Format settings, CABAC                   : Yes
Format settings, Reference frames        : 12 frames
Codec ID                                 : V_MPEG4/ISO/AVC
Duration                                 : 1 h 41 min
Bit rate                                 : 3 646 kb/s
Width                                    : 1 280 pixels
Height                                   : 536 pixels
Display aspect ratio                     : 2.40:1
Frame rate mode                          : Constant
Frame rate                               : 23.976 (24000/1001/189150) FPS
Color space                              : YUV
Chroma subsampling                       : 4:2:0
Bit depth                                : 8 bits
Scan type                                : Progressive
Bits/(Pixel*Frame)                       : 0.222
Stream size                              : 2.59 GiB (85%)
Writing library                          : x264 core 161 r3027 4121277
Encoding settings                        : cabac=1 / ref=12 / deblock=1:-3:-3 / analyse=0x3:0x133 / me=umh / subme=10 / psy=1 / psy_rd=1.00:0.15 / mixed_ref=1 / me_range=24 / chroma_me=1 / trellis=2 / 8x8dct=1 / cqm=0 / deadzone=21,11 / fast_pskip=1 / chroma_qp_offset=-3 / threads=17 / lookahead_threads=2 / sliced_threads=0 / nr=0 / decimate=1 / interlaced=0 / bluray_compat=0 / constrained_intra=0 / bframes=8 / b_pyramid=2 / b_adapt=2 / b_bias=0 / direct=3 / weightb=1 / open_gop=0 / weightp=2 / keyint=250 / keyint_min=23 / scenecut=40 / intra_refresh=0 / rc_lookahead=60 / rc=crf / mbtree=1 / crf=14.0 / qcomp=0.60 / qpmin=0 / qpmax=69 / qpstep=4 / ip_ratio=1.40 / aq=3:0.60
Language                                 : English
Default                                  : Yes
Forced                                   : No
Color range                              : Limited
Matrix coefficients                      : BT.709

Audio
ID                                       : 2
Format                                   : AC-3
Format/Info                              : Audio Coding 3
Commercial name                          : Dolby Digital
Codec ID                                 : A_AC3
Duration                                 : 1 h 41 min
Bit rate mode                            : Constant
Bit rate                                 : 640 kb/s
Channel(s)                               : 6 channels
Channel layout                           : L R C LFE Ls Rs
Sampling rate                            : 48.0 kHz
Frame rate                               : 31.250 FPS (1536 SPF)
Compression mode                         : Lossy
Stream size                              : 465 MiB (15%)
Language                                 : German
Service kind                             : Complete Main
Default                                  : Yes
Forced                                   : No

Text #1
ID                                       : 3
Format                                   : UTF-8
Codec ID                                 : S_TEXT/UTF8
Codec ID/Info                            : UTF-8 Plain Text
Duration                                 : 1 h 32 min
Bit rate                                 : 23 b/s
Count of elements                        : 595
Stream size                              : 15.8 KiB (0%)
Title                                    : English
Language                                 : English
Default                                  : Yes
Forced                                   : Yes

Text #2
ID                                       : 4
Format                                   : UTF-8
Codec ID                                 : S_TEXT/UTF8
Codec ID/Info                            : UTF-8 Plain Text
Duration                                 : 1 h 32 min
Bit rate                                 : 25 b/s
Count of elements                        : 582
Stream size                              : 17.2 KiB (0%)
Title                                    : German
Language                                 : German
Default                                  : No
Forced                                   : No

Text #3
ID                                       : 5
Format                                   : PGS
Muxing mode                              : zlib
Codec ID                                 : S_HDMV/PGS
Codec ID/Info                            : Picture based subtitle format used on BDs/HD-DVDs
Duration                                 : 1 h 32 min
Bit rate                                 : 5 371 b/s
Count of elements                        : 1163
Stream size                              : 3.56 MiB (0%)
Title                                    : German
Language                                 : German
Default                                  : No
Forced                                   : No

Menu
00:00:00.000                             : en:00:00:00.000
00:08:00.480                             : en:00:08:00.480
00:17:59.078                             : en:00:17:59.078
00:25:09.508                             : en:00:25:09.508
00:35:23.121                             : en:00:35:23.121
00:42:30.548                             : en:00:42:30.548
00:50:21.018                             : en:00:50:21.018
01:00:08.605                             : en:01:00:08.605
01:06:45.001                             : en:01:06:45.001
01:14:59.495                             : en:01:14:59.495
01:26:27.182                             : en:01:26:27.182
01:34:04.639                             : en:01:34:04.639




                                                                                                                                                                                                        
                                                                                                                                                                                                                                                                                                                                                                                                                                                                                                                                                                                                                                                                                                                                                                                                                                                        
e3be1a3563eb2185a3c0e3701aafd426.zip (31.12 KB, 下载次数: 0)

回复

使用道具 举报

小黑屋|百度云资源论坛 |网站地图

本网站所有资源来自网络,如无意中侵犯了您的权益,请发邮件至 [email protected],立即清除相关链接

GMT+8, 2021-1-19 20:33 , Processed in 0.111327 second(s), 23 queries .

Powered by Discuz! X3.2

© 2001-2013 Comsenz Inc.

快速回复 返回顶部 返回列表