百度云资源论坛

 找回密码
 立即注册
搜索

街角的商店/情侣求缘 The.Shop.Around.the.Corner.1940.720p.BluRay.x264...

[复制链接]
百度云电影 发表于 2020-12-31 10:27:02 | 显示全部楼层 |阅读模式
-->
帖子完整标题:街角的商店/情侣求缘 The.Shop.Around.the.Corner.1940.720p.BluRay.x264-USURY 7.00GB




◎译  名 街角的商店/情侣求缘/笔友俏冤家/笔友求缘/笔友的恋情/街角商店
◎片  名 The Shop Around the Corner
◎年  代 1940
◎产  地 美国
◎类  别 剧情 / 喜剧 / 爱情
◎语  言 英语
◎上映日期 1940-01-12
◎IMDb评分  8.1/10 from 28032 users
◎  
◎豆瓣评分 8.7/10 from 7804 users
◎ 
◎片  长 99 分钟
◎导  演 恩斯特·刘别谦 Ernst Lubitsch
◎编  剧 山姆森·雷佛森 Samson Raphaelson / Miklós László / 本·赫克特 Ben Hecht
◎主  演 玛格里特·苏利文 Margaret Sullavan
       詹姆斯·斯图尔特 James Stewart
       弗兰克·摩根 Frank Morgan
       约瑟夫·斯柴德克劳特 Joseph Schildkraut
       萨拉·黑登 Sara Haden
       米拉·麦金尼 Mira McKinney
       埃德温·马克斯韦尔 Edwin Maxwell
       雷妮·里亚诺 Renie Riano
       Charles Smith
       William Tracy
       恩斯特·刘别谦 Ernst Lubitsch
       查尔斯·霍尔顿 Charles Halton
       格蕾斯·海尔 Grace Hayle
       玛丽·卡尔 Mary Carr
       查尔斯·阿恩特 Charles Arnt
       Joan Blair
       Mabel Colcord
       伊内兹·考特尼 Inez Courtney
       菲利克斯·布雷萨特 Felix Bressart
       克莱尔杜布里 Claire Du Brey
       萨拉·爱德华兹 Sarah Edwards
       威廉·埃德蒙兹 William Edmunds

◎标  签 美国 | 喜剧 | 刘别谦 | 爱情 | 美国电影 | 1940s | 1940 | JamesStewart

◎简  介

  匈牙利布达佩斯,街角一间普通的小杂货铺。老板雨果·马图舍克(弗兰克·摩根 Frank Morgan饰)一直经营着这家小店,他的店员阿尔弗雷德·克莱里克(詹姆斯·斯图尔特 James Stewart饰)是店里经验最丰富的优秀店员。来到小店应聘的克拉尔·诺瓦克(玛格里特·苏利文 Margaret Sullavan饰)很快就被老板雇佣,却与阿尔弗雷德互相仇视,不能容忍对方。孤独又痴情的阿尔弗雷德有一个从未谋面的笔友。当他背着老板前去酒吧与笔友见面时,居然发现互相倾慕已久的亲密笔友居然就是自己讨厌的克拉尔。天意弄人,被老板解雇的阿尔弗雷德因为失业而不敢上前与她相认。
  
  由著名电影喜剧大师恩斯特·刘别谦执导的经典喜剧电影《街角的商店》,被列入美国电影学会评选的百年百大爱情类电影。本片具有四十年代喜剧的乐观积极气氛,被改编拍摄成1998年的新版本《电子情书》。
Video
ID                                       : 1
Format                                   : AVC
Format/Info                              : Advanced Video Codec
Format profile                           :
Format settings                          : CABAC / 11 Ref Frames
Format settings, CABAC                   : Yes
Format settings, Reference frames        : 11 frames
Codec ID                                 : V_MPEG4/ISO/AVC
Duration                                 : 1 h 38 min
Bit rate                                 : 9 568 kb/s
Width                                    : 986 pixels
Height                                   : 720 pixels
Display aspect ratio                     : 4:3
Frame rate mode                          : Constant
Frame rate                               : 23.976 (24000/1001/189150) FPS
Color space                              : YUV
Chroma subsampling                       : 4:2:0
Bit depth                                : 8 bits
Scan type                                : Progressive
Bits/(Pixel*Frame)                       : 0.562
Stream size                              : 6.59 GiB (94%)
Writing library                          : x264 core 161 r3027 4121277
Encoding settings                        : cabac=1 / ref=11 / deblock=1:-3:-3 / analyse=0x3:0x133 / me=umh / subme=10 / psy=1 / psy_rd=1.00:0.15 / mixed_ref=1 / me_range=24 / chroma_me=1 / trellis=2 / 8x8dct=1 / cqm=0 / deadzone=21,11 / fast_pskip=1 / chroma_qp_offset=-3 / threads=18 / lookahead_threads=3 / sliced_threads=0 / nr=0 / decimate=1 / interlaced=0 / bluray_compat=0 / constrained_intra=0 / bframes=8 / b_pyramid=2 / b_adapt=2 / b_bias=0 / direct=3 / weightb=1 / open_gop=0 / weightp=2 / keyint=250 / keyint_min=23 / scenecut=40 / intra_refresh=0 / rc_lookahead=60 / rc=crf / mbtree=1 / crf=18.0 / qcomp=0.60 / qpmin=0 / qpmax=69 / qpstep=4 / ip_ratio=1.40 / aq=3:0.50
Language                                 : English
Default                                  : Yes
Forced                                   : No

Audio
ID                                       : 2
Format                                   : FLAC
Format/Info                              : Free Lossless Audio Codec
Codec ID                                 : A_FLAC
Duration                                 : 1 h 38 min
Bit rate mode                            : Variable
Bit rate                                 : 555 kb/s
Channel(s)                               : 2 channels
Channel layout                           : L R
Sampling rate                            : 48.0 kHz
Frame rate                               : 11.719 FPS (4096 SPF)
Bit depth                                : 24 bits
Compression mode                         : Lossless
Stream size                              : 392 MiB (5%)
Writing library                          : libFLAC 1.2.1 (UTC 2007-09-17)
Language                                 : English
Default                                  : Yes
Forced                                   : No

Text #1
ID                                       : 3
Format                                   : UTF-8
Codec ID                                 : S_TEXT/UTF8
Codec ID/Info                            : UTF-8 Plain Text
Duration                                 : 1 h 36 min
Bit rate                                 : 104 b/s
Count of elements                        : 2104
Stream size                              : 73.4 KiB (0%)
Title                                    : English
Language                                 : English
Default                                  : No
Forced                                   : No

Text #2
ID                                       : 4
Format                                   : UTF-8
Codec ID                                 : S_TEXT/UTF8
Codec ID/Info                            : UTF-8 Plain Text
Duration                                 : 1 h 38 min
Bit rate                                 : 103 b/s
Count of elements                        : 2158
Stream size                              : 74.5 KiB (0%)
Title                                    : English SDH
Language                                 : English
Default                                  : No
Forced                                   : No

Text #3
ID                                       : 5
Format                                   : PGS
Muxing mode                              : zlib
Codec ID                                 : S_HDMV/PGS
Codec ID/Info                            : Picture based subtitle format used on BDs/HD-DVDs
Duration                                 : 1 h 38 min
Bit rate                                 : 29.0 kb/s
Count of elements                        : 4316
Stream size                              : 20.4 MiB (0%)
Title                                    : English SDH
Language                                 : English
Default                                  : No
Forced                                   : No

Menu
00:00:00.000                             : en:00:00:00.000
00:01:30.090                             : en:00:01:30.090
00:05:26.034                             : en:00:05:26.034
00:07:32.994                             : en:00:07:32.994
00:09:57.263                             : en:00:09:57.263
00:13:31.352                             : en:00:13:31.352
00:16:55.389                             : en:00:16:55.389
00:18:47.126                             : en:00:18:47.126
00:21:52.269                             : en:00:21:52.269
00:23:53.974                             : en:00:23:53.974
00:27:57.801                             : en:00:27:57.801
00:31:15.040                             : en:00:31:15.040
00:35:06.730                             : en:00:35:06.730
00:38:29.098                             : en:00:38:29.098
00:41:44.043                             : en:00:41:44.043
00:45:12.001                             : en:00:45:12.001
00:47:25.760                             : en:00:47:25.760
00:49:00.896                             : en:00:49:00.896
00:51:54.028                             : en:00:51:54.028
00:55:51.932                             : en:00:55:51.932
00:57:51.009                             : en:00:57:51.009
01:02:09.392                             : en:01:02:09.392
01:05:16.329                             : en:01:05:16.329
01:08:57.717                             : en:01:08:57.717
01:12:34.392                             : en:01:12:34.392
01:16:44.642                             : en:01:16:44.642
01:20:23.485                             : en:01:20:23.485
01:22:23.021                             : en:01:22:23.021
01:25:55.400                             : en:01:25:55.400
01:28:14.956                             : en:01:28:14.956
01:31:44.958                             : en:01:31:44.958
01:35:02.071                             : en:01:35:02.071
01:38:08.966                             : en:01:38:08.966




                                                                                                                                                                                                        
                                                                                                                                                                                                                                                                                                                                                                                                                                                                                                                                                                                                                                                                                                                                                                                                                                                        
88b45a8cad566c4d39f0a656d373ecb9.zip (35.72 KB, 下载次数: 0)

回复

使用道具 举报

小黑屋|百度云资源论坛 |网站地图

本网站所有资源来自网络,如无意中侵犯了您的权益,请发邮件至 [email protected],立即清除相关链接

GMT+8, 2021-1-20 12:09 , Processed in 0.098496 second(s), 23 queries .

Powered by Discuz! X3.2

© 2001-2013 Comsenz Inc.

快速回复 返回顶部 返回列表