百度云资源论坛

 找回密码
 立即注册
搜索

爱与怪物 Love.and.Monsters.2020.720p.BluRay.x264.DTS-FGT 5.33GB

[复制链接]
百度云电影 发表于 2020-12-30 13:11:04 | 显示全部楼层 |阅读模式
-->
帖子完整标题:爱与怪物 Love.and.Monsters.2020.720p.BluRay.x264.DTS-FGT 5.33GB




◎译  名 爱与怪物/Monster Problems/怪物问题
◎片  名 Love and Monsters
◎年  代 2020
◎产  地 美国
◎类  别 冒险
◎语  言 英语
◎上映日期 2020-10-16(美国)
◎IMDb评分  7/10 from 24355 users
◎  
◎豆瓣评分 7.2/10 from 16571 users
◎ 
◎片  长 109分钟
◎导  演 迈克尔·马修斯 Michael Matthews
◎编  剧 布莱恩·达菲尔德 Brian Duffield / 马修·罗宾逊 Matthew Robinson
◎主  演 迪伦·奥布莱恩 Dylan O'Brien
       杰西卡·亨维克 Jessica Henwick
       迈克尔·鲁克 Michael Rooker
       丹尼尔·尤因 Daniel Ewing
       阿丽亚娜·格林布拉特 Ariana Greenblatt
       艾伦·霍尔曼 Ellen Hollman
       特雷·黑尔 Tre Hale
       帕卡罗·姆泽贝 Pacharo Mzembe
       西尼·普里蒂 Senie Priti
       阿玛莉·沃德 Amali Ward
       特克赫·图哈卡 Te Kohe Tuhaka
       塔斯尼姆·罗克 Tasneem Roc
       托马斯·坎贝尔 Thomas Campbell
       乔尔·皮尔斯 Joel Pierce
       梅拉妮·萨内蒂 Melanie Zanetti
       布鲁斯·斯宾斯 Bruce Spence
       米莉亚玛·史密斯 Miriama Smith
       安德鲁·布坎南 Andrew Buchanan
       坦蒂·莱特 Tandi Wright
       达米安·加维 Damien Garvey
       西罗 Hero
       道奇 Dodge
       拉里·塞达尔 Larry Cedar

◎标  签 怪物 | 冒险 | 科幻 | 奇幻 | 美国 | 2020 | 喜剧 | 爱情

◎简  介

  故事的背景设定在一个大部分人类已经死亡的末日世界中,主宰着这个世界里的生杀大权的,是那些变异了的冷血动物。仅剩的人类为了求生被迫迁入地下堡垒中,终日生活在胆战心惊里。
  
  乔伊(迪伦·奥布莱恩 Dylan O'Brien 饰)在七年前的大灾难里同女友艾米(杰西卡·亨维克 Jessica Henwick 饰)走散,如今他们身居两个不同的地堡中,靠着无线电联系。一天,无比思念艾米的乔伊决定踏出安全区,重返地上世界,独自徒步前往艾米所在的营地,一路上他遇见了无数的危险,同时也遇见了良师益友克莱德(迈克尔·鲁克 Michael Rooker 饰)和米诺(阿丽亚娜·格林布拉特 Ariana Greenblatt 饰)。性格懦弱胆小的乔伊能够活着见到艾米吗?
Video
ID                                       : 1
Format                                   : AVC
Format/Info                              : Advanced Video Codec
Format profile                           :
Format settings                          : CABAC / 4 Ref Frames
Format settings, CABAC                   : Yes
Format settings, Reference frames        : 4 frames
Codec ID                                 : V_MPEG4/ISO/AVC
Duration                                 : 1 h 48 min
Bit rate                                 : 5 500 kb/s
Width                                    : 1 280 pixels
Height                                   : 536 pixels
Display aspect ratio                     : 2.40:1
Frame rate mode                          : Constant
Frame rate                               : 23.976 (24000/1001/189150) FPS
Color space                              : YUV
Chroma subsampling                       : 4:2:0
Bit depth                                : 8 bits
Scan type                                : Progressive
Bits/(Pixel*Frame)                       : 0.334
Stream size                              : 4.18 GiB (78%)
Writing library                          : x264 core 148 r2748 97eaef2
Encoding settings                        : cabac=1 / ref=4 / deblock=1:-2:-2 / analyse=0x3:0x113 / me=umh / subme=9 / psy=1 / psy_rd=1.00:0.15 / mixed_ref=1 / me_range=16 / chroma_me=1 / trellis=2 / 8x8dct=1 / cqm=0 / deadzone=21,11 / fast_pskip=1 / chroma_qp_offset=-3 / threads=72 / lookahead_threads=3 / sliced_threads=0 / nr=0 / decimate=1 / interlaced=0 / bluray_compat=0 / constrained_intra=0 / bframes=3 / b_pyramid=2 / b_adapt=1 / b_bias=0 / direct=3 / weightb=1 / open_gop=0 / weightp=2 / keyint=250 / keyint_min=25 / scenecut=40 / intra_refresh=0 / rc_lookahead=50 / rc=2pass / mbtree=1 / bitrate=5500 / ratetol=1.0 / qcomp=0.60 / qpmin=0 / qpmax=69 / qpstep=4 / cplxblur=20.0 / qblur=0.5 / vbv_maxrate=31250 / vbv_bufsize=31250 / nal_hrd=none / filler=0 / ip_ratio=1.40 / aq=1:1.00
Language                                 : English
Default                                  : Yes
Forced                                   : No

Audio
ID                                       : 2
Format                                   : DTS
Format/Info                              : Digital Theater Systems
Codec ID                                 : A_DTS
Duration                                 : 1 h 48 min
Bit rate mode                            : Constant
Bit rate                                 : 1 509 kb/s
Channel(s)                               : 6 channels
Channel layout                           : C L R Ls Rs LFE
Sampling rate                            : 48.0 kHz
Frame rate                               : 93.750 FPS (512 SPF)
Bit depth                                : 24 bits
Compression mode                         : Lossy
Stream size                              : 1.15 GiB (22%)
Title                                    : DTS 5.1
Language                                 : English
Default                                  : Yes
Forced                                   : No

Text
ID                                       : 3
Format                                   : UTF-8
Codec ID                                 : S_TEXT/UTF8
Codec ID/Info                            : UTF-8 Plain Text
Duration                                 : 1 h 41 min
Bit rate                                 : 60 b/s
Count of elements                        : 1402
Stream size                              : 45.2 KiB (0%)
Language                                 : English
Default                                  : Yes
Forced                                   : No

Menu
00:00:00.000                             : en:Chapter 01
00:10:19.660                             : en:Chapter 02
00:20:14.504                             : en:Chapter 03
00:28:48.643                             : en:Chapter 04
00:34:54.967                             : en:Chapter 05
00:41:15.514                             : en:Chapter 06
00:50:20.976                             : en:Chapter 07
00:54:56.459                             : en:Chapter 08
01:04:05.716                             : en:Chapter 09
01:13:02.669                             : en:Chapter 10
01:20:52.472                             : en:Chapter 11
01:27:57.105                             : en:Chapter 12
01:36:45.466                             : en:Chapter 13
01:42:38.277                             : en:Chapter 14




                                                                                                                                                                                                        
                                                                                                                                                                                                                                                                                                                                                                                                                                                                                                                                                                                                                                                                                                                                                                                                                                                        
8276ed152d43bc0fc16b4578778622e5.zip (27.29 KB, 下载次数: 0)

回复

使用道具 举报

小黑屋|百度云资源论坛 |网站地图

本网站所有资源来自网络,如无意中侵犯了您的权益,请发邮件至 [email protected],立即清除相关链接

GMT+8, 2021-1-27 11:27 , Processed in 0.150275 second(s), 23 queries .

Powered by Discuz! X3.2

© 2001-2013 Comsenz Inc.

快速回复 返回顶部 返回列表