百度云资源论坛

 找回密码
 立即注册
搜索

错误指控/绝命错杀令 Wrongfully.Accused.1998.720p.BluRay.x264-WoAT 3....

[复制链接]
百度云资源 发表于 2020-12-30 13:11:04 | 显示全部楼层 |阅读模式
-->
帖子完整标题:错误指控/绝命错杀令 Wrongfully.Accused.1998.720p.BluRay.x264-WoAT 3.68GB




◎译  名 错误指控/绝命错杀令(台)
◎片  名 Wrongfully Accused
◎年  代 1998
◎产  地 德国,美国
◎类  别 喜剧 / 动作 / 惊悚
◎语  言 英语
◎上映日期 1998-07-23
◎IMDb评分  6.2/10 from 23507 users
◎  
◎豆瓣评分 7.0/10 from 1178 users
◎ 
◎片  长 87 分钟
◎导  演 帕特·普罗夫 Pat Proft
◎编  剧 帕特·普罗夫 Pat Proft
◎主  演 莱斯利·尼尔森 Leslie Nielsen
       理查德·克里纳 Richard Crenna
       凯莉·勒布洛克 Kelly LeBrock
       美琳达·麦格劳 Melinda McGraw
       麦克尔·约克 Michael York
       桑德拉·伯恩哈德 Sandra Bernhard
       艾伦·坡尔 Aaron Pearl
       本杰明·拉特纳 Benjamin Ratner
       杰拉德·普伦科特 Gerard Plunkett
       邓肯·弗雷泽 Duncan Fraser
       John Walsh
       Chick Hearn
       玛丽·布莱克 Mary Black
       阿莱克斯·迪亚坤 Alex Diakun
       阿德里安·多瓦尔 Adrien Dorval
       埃莉·哈维 Ellie Harvie
       Charles Payne
       帕特·普罗夫 Pat Proft
       薇娜·苏德 Veena Sood
       Bill Tarling
       Shari Lewis
       童自荣 Zirong Tong

◎标  签 喜剧 | 美国 | 恶搞 | 搞笑 | 美国电影 | 莱斯利·尼尔森/Leslie_Nielsen | 1998 | 无厘头

◎简  介

  一次演奏会上,小提琴家瑞安(莱斯利?尼尔森 Leslie Nielsen 饰)邂逅了美艳妇人劳伦(凯丽?勒布克 Kelly LeBrock 饰),劳伦对他大抛媚眼,吓得瑞安不知所措。联合国秘书长罗伯特将到哥伦比亚作反恐演讲,劳伦的丈夫希宾负责安排一切。这天瑞安收到了劳伦的邀请,并注明如果他不前来她将自杀。揣揣不安的瑞安如约来到了劳伦的别墅,却发现希宾早已倒地身亡。突然,一名独眼独臂独腿的男人出现将瑞安击晕了。
  
  当瑞安醒来后,他已被警察抓了起来,荒谬的是,瑞安谋杀希宾的罪名成立了。尽管他一再分辩,但他还是被押往监狱。途中囚车意外翻下了山崖,大难不死的瑞安开始了亡命天涯,他一方面要逃避追捕,一方面要设法找证据还自己一个清白!
Video
ID                                       : 1
Format                                   : AVC
Format/Info                              : Advanced Video Codec
Format profile                           :
Format settings                          : CABAC / 8 Ref Frames
Format settings, CABAC                   : Yes
Format settings, Reference frames        : 8 frames
Codec ID                                 : V_MPEG4/ISO/AVC
Duration                                 : 1 h 25 min
Bit rate                                 : 4 669 kb/s
Width                                    : 1 280 pixels
Height                                   : 720 pixels
Display aspect ratio                     : 16:9
Frame rate mode                          : Constant
Frame rate                               : 23.976 (24000/1001/189150) FPS
Color space                              : YUV
Chroma subsampling                       : 4:2:0
Bit depth                                : 8 bits
Scan type                                : Progressive
Bits/(Pixel*Frame)                       : 0.211
Stream size                              : 2.80 GiB (76%)
Writing library                          : x264 core 161 r3027 4121277
Encoding settings                        : cabac=1 / ref=8 / deblock=1:-3:-3 / analyse=0x3:0x133 / me=umh / subme=9 / psy=1 / psy_rd=1.00:0.00 / mixed_ref=1 / me_range=32 / chroma_me=1 / trellis=2 / 8x8dct=1 / cqm=0 / deadzone=21,11 / fast_pskip=0 / chroma_qp_offset=-2 / threads=12 / lookahead_threads=2 / sliced_threads=0 / nr=0 / decimate=0 / interlaced=0 / bluray_compat=0 / constrained_intra=0 / bframes=9 / b_pyramid=2 / b_adapt=2 / b_bias=0 / direct=3 / weightb=1 / open_gop=0 / weightp=2 / keyint=250 / keyint_min=23 / scenecut=40 / intra_refresh=0 / rc=crf / mbtree=0 / crf=19.5 / qcomp=0.60 / qpmin=0 / qpmax=69 / qpstep=4 / ip_ratio=1.40 / pb_ratio=1.30 / aq=3:0.88
Default                                  : Yes
Forced                                   : No
Color range                              : Limited
Matrix coefficients                      : BT.709

Audio
ID                                       : 3
Format                                   : FLAC
Format/Info                              : Free Lossless Audio Codec
Codec ID                                 : A_FLAC
Duration                                 : 1 h 25 min
Bit rate mode                            : Variable
Bit rate                                 : 1 450 kb/s
Channel(s)                               : 2 channels
Channel layout                           : L R
Sampling rate                            : 48.0 kHz
Frame rate                               : 11.719 FPS (4096 SPF)
Bit depth                                : 24 bits
Compression mode                         : Lossless
Stream size                              : 891 MiB (24%)
Title                                    : English
Writing library                          : libFLAC 1.2.1 (UTC 2007-09-17)
Language                                 : English
Default                                  : Yes
Forced                                   : No

Text
ID                                       : 2
Format                                   : PGS
Muxing mode                              : zlib
Codec ID                                 : S_HDMV/PGS
Codec ID/Info                            : Picture based subtitle format used on BDs/HD-DVDs
Duration                                 : 1 h 25 min
Bit rate                                 : 24.2 kb/s
Count of elements                        : 2447
Stream size                              : 14.9 MiB (0%)
Title                                    : English
Language                                 : English
Default                                  : No
Forced                                   : No

Menu
00:00:00.000                             : en:Chapter 01
00:09:48.505                             : en:Chapter 02
00:18:29.191                             : en:Chapter 03
00:30:02.634                             : en:Chapter 04
00:43:35.154                             : en:Chapter 05
00:55:04.843                             : en:Chapter 06
01:04:37.874                             : en:Chapter 07
01:19:59.545                             : en:Chapter 08




                                                                                                                                                                                                        
                                                                                                                                                                                                                                                                                                                                                                                                                                                                                                                                                                                                                                                                                                                                                                                                                                                        
f794a8cec9accf6891d34f83e8a5ac95.zip (37.46 KB, 下载次数: 0)

回复

使用道具 举报

小黑屋|百度云资源论坛 |网站地图

本网站所有资源来自网络,如无意中侵犯了您的权益,请发邮件至 [email protected],立即清除相关链接

GMT+8, 2021-1-27 11:51 , Processed in 0.097230 second(s), 23 queries .

Powered by Discuz! X3.2

© 2001-2013 Comsenz Inc.

快速回复 返回顶部 返回列表