百度云资源论坛

 找回密码
 立即注册
搜索

爱情特效药/不是冤家不聚头 Big.Bully.1996.720p.BluRay.x264-WoAT 4....

[复制链接]
百度云资源 发表于 2020-12-30 13:11:04 | 显示全部楼层 |阅读模式
-->
帖子完整标题:爱情特效药/不是冤家不聚头 Big.Bully.1996.720p.BluRay.x264-WoAT 4.50GB




◎译  名 爱情特效药/不是冤家不聚头/蛮兄衰弟也疯狂
◎片  名 Big Bully
◎年  代 1996
◎产  地 美国
◎类  别 剧情 / 喜剧
◎语  言 英语
◎上映日期 1996-01-26
◎IMDb评分  4.7/10 from 4519 users
◎  
◎豆瓣评分 /10 from 0 users
◎ 
◎片  长 90 分钟
◎导  演 史蒂夫·迈纳 Steve Miner
◎编  剧 马克·斯蒂文·约翰逊 Mark Steven Johnson
◎主  演 汤姆·阿诺德 Tom Arnold
       Eryn Collins
       Alexander Pollock
       卡罗尔·凯恩 Carol Kane
       Matt Hill
       唐·诺茨 Don Knotts
       杰弗里·塔伯 Jeffrey Tambor
       格里高利·史密斯 Gregory Smith
       小哈利·沃特斯 Harry Waters Jr.
       Grant Hoover
       Michael Zwiener
       Brian Wickens
       凯尔·拉比内 Kyle Labine
       布莱克·巴绍夫 Blake Bashoff
       科迪·麦克马斯 Cody McMains
       Norma MacMillan
       Butch Miller
       朱莉安娜·菲利普斯 Julianne Phillips
       斯图尔特·潘金 Stuart Pankin
       柯蒂斯·阿姆斯壮 Curtis Armstrong
       泰根·摩斯 Tegan Moss
       费斯·普林斯 Faith Prince
       因格里德·托伦斯 Ingrid Torrance
       里克·莫拉尼斯 Rick Moranis

◎标  签 美国 | 美国电影 | 喜剧 |  〖 欧美,喜剧系列电影 〗  | …… | 1996

◎简  介

  大卫赖瑞从小就被同学罗斯可欺负压榨,直到他和家人搬离小镇那天亦是如此。二十年后,大卫带着一家人受邀回小镇教书,沒想到罗斯可还是照样捉弄他,甚至连他们的孩子也成了冤家。罗斯可该如何化解这段二十年之久的渊源?
Video
ID                                       : 1
Format                                   : AVC
Format/Info                              : Advanced Video Codec
Format profile                           :
Format settings                          : CABAC / 8 Ref Frames
Format settings, CABAC                   : Yes
Format settings, Reference frames        : 8 frames
Codec ID                                 : V_MPEG4/ISO/AVC
Duration                                 : 1 h 30 min
Bit rate                                 : 6 486 kb/s
Width                                    : 1 280 pixels
Height                                   : 720 pixels
Display aspect ratio                     : 16:9
Frame rate mode                          : Constant
Frame rate                               : 23.976 (24000/1001/189150) FPS
Color space                              : YUV
Chroma subsampling                       : 4:2:0
Bit depth                                : 8 bits
Scan type                                : Progressive
Bits/(Pixel*Frame)                       : 0.294
Stream size                              : 4.09 GiB (91%)
Writing library                          : x264 core 161 r3027 4121277
Encoding settings                        : cabac=1 / ref=8 / deblock=1:-3:-3 / analyse=0x3:0x133 / me=umh / subme=9 / psy=1 / psy_rd=1.00:0.00 / mixed_ref=1 / me_range=32 / chroma_me=1 / trellis=2 / 8x8dct=1 / cqm=0 / deadzone=21,11 / fast_pskip=0 / chroma_qp_offset=-2 / threads=12 / lookahead_threads=2 / sliced_threads=0 / nr=0 / decimate=0 / interlaced=0 / bluray_compat=0 / constrained_intra=0 / bframes=9 / b_pyramid=2 / b_adapt=2 / b_bias=0 / direct=3 / weightb=1 / open_gop=0 / weightp=2 / keyint=250 / keyint_min=23 / scenecut=40 / intra_refresh=0 / rc=crf / mbtree=0 / crf=18.0 / qcomp=0.60 / qpmin=0 / qpmax=69 / qpstep=4 / ip_ratio=1.40 / pb_ratio=1.30 / aq=3:0.88
Default                                  : Yes
Forced                                   : No
Color range                              : Limited
Matrix coefficients                      : BT.709

Audio
ID                                       : 2
Format                                   : AC-3
Format/Info                              : Audio Coding 3
Commercial name                          : Dolby Digital
Codec ID                                 : A_AC3
Duration                                 : 1 h 30 min
Bit rate mode                            : Constant
Bit rate                                 : 640 kb/s
Channel(s)                               : 6 channels
Channel layout                           : L R C LFE Ls Rs
Sampling rate                            : 48.0 kHz
Frame rate                               : 31.250 FPS (1536 SPF)
Compression mode                         : Lossy
Stream size                              : 413 MiB (9%)
Title                                    : English
Language                                 : English
Service kind                             : Complete Main
Default                                  : No
Forced                                   : No

Text
ID                                       : 3
Format                                   : PGS
Muxing mode                              : zlib
Codec ID                                 : S_HDMV/PGS
Codec ID/Info                            : Picture based subtitle format used on BDs/HD-DVDs
Duration                                 : 1 h 27 min
Bit rate                                 : 28.4 kb/s
Count of elements                        : 3209
Stream size                              : 17.8 MiB (0%)
Title                                    : English
Language                                 : English
Default                                  : No
Forced                                   : No

Menu
00:00:00.000                             : en:Chapter 01
00:06:10.954                             : en:Chapter 02
00:12:37.173                             : en:Chapter 03
00:20:06.455                             : en:Chapter 04
00:31:10.786                             : en:Chapter 05
00:41:48.589                             : en:Chapter 06
00:54:16.670                             : en:Chapter 07
01:03:27.721                             : en:Chapter 08
01:11:09.182                             : en:Chapter 09
01:20:00.838                             : en:Chapter 10
01:25:55.901                             : en:Chapter 11
01:30:15.493                             : en:Chapter 12




                                                                                                                                                                                                        
                                                                                                                                                                                                                                                                                                                                                                                                                                                                                                                                                                                                                                                                                                                                                                                                                                                        
d3b5dc054309b0f035683455df2000bf.zip (45.64 KB, 下载次数: 0)

回复

使用道具 举报

小黑屋|百度云资源论坛 |网站地图

本网站所有资源来自网络,如无意中侵犯了您的权益,请发邮件至 [email protected],立即清除相关链接

GMT+8, 2021-1-27 12:46 , Processed in 0.099707 second(s), 23 queries .

Powered by Discuz! X3.2

© 2001-2013 Comsenz Inc.

快速回复 返回顶部 返回列表