百度云资源论坛

 找回密码
 立即注册
搜索

霓裳丛林/黑社会风云 The.Garment.Jungle.1957.720p.BluRay.x264-ORBS 4.59GB ... ...

[复制链接]
百度云资源 发表于 2020-12-27 09:15:42 | 显示全部楼层 |阅读模式
-->
帖子完整标题:霓裳丛林/黑社会风云 The.Garment.Jungle.1957.720p.BluRay.x264-ORBS 4.59GB




◎译  名 霓裳丛林/黑社会风云
◎片  名 The Garment Jungle
◎年  代 1957
◎产  地 美国
◎类  别 剧情 / 黑色电影
◎语  言 英语
◎上映日期 1957-04-25
◎IMDb评分  6.6/10 from 576 users
◎  https://www.imdb.com/title/tt0050424/
◎豆瓣评分 /10 from 0 users
◎ 
◎片  长 88 分钟
◎导  演 文森特·舒曼 Vincent Sherman / 罗伯特·奥尔德里奇 Robert Aldrich
◎编  剧 哈里·克莱纳 Harry Kleiner
◎主  演 李·科布 Lee J. Cobb
       凯文·马修斯 Kerwin Mathews
       罗伯特·劳吉亚 Robert Loggia
       吉娅·斯卡拉 Gia Scala
       理查德·布恩 Richard Boone
       西莉亚·罗斯基 Celia Lovsky
       Joe Ploski
       Gloria Pall
       Paul Power
       哈罗德·米勒 Harold Miller
       Jon Shepodd
       希德·梅尔顿 Sid Melton
       凯茜·马洛 Kathy Marlowe
       法兰克·马洛 Frank Marlowe
       Archie Savage
       查尔兹·歇洛克 Charles Sherlock
       George Robotham
       伊芙·布伦特 Eve Brent
       William Woodson
       亚当·威廉姆斯 Adam Williams
       哈罗德·J.斯通 Harold J. Stone
       Dale Van Sickel
       Hal Taggart
       科兹摩萨尔多 Cosmo Sardo
       Irene Seidner
       Donald Kirke
       肯纳G.肯普 Kenner G. Kemp
       Joe Lanza
       约瑟夫·怀斯曼 Joseph Wiseman
       乔安娜·巴恩斯 Joanna Barnes
       裘德·泰勒 Jud Taylor
       迪克·克罗基特 Dick Crockett
       韦斯利·阿迪 Wesley Addy
       Betsy Jones
       Bob Hopkins
       Suzanne Alexander
       Joan Granville
       玛丽莲·哈洛特 Marilyn Hanold
       Kenneth Gibson
       Valerie French
       Madelyn Darrow
       罗伯特·艾伦斯坦 Robert Ellenstein
       Lillian Culver
       Shirley Buchanan
       Bonnie Bolding
       威利斯·布鲁辛 Willis Bouchey

◎标  签 美国 | 黑色电影 | 罗伯特·奥尔德里奇 | 美国电影 | 文森特·舒曼 | 剧情 | Film-Noir | 1950s

◎简  介

  A story about the struggle of the International Ladys Garment Worker Union (ILGWU) to unionize a New York sweat shop, Roxton Fashions, in the Garment District. Lee J. Cobb plays Walter Mitchell the owner of a company that is determined to keep the union out of his shop. His partner does not agree, and only wants the workers to have a living wage. He dies in an accident. Kerwin Mathews palys his son Alan, who comes back to New York after a long absence. He does not understand his fathers angry resistance to t he union, and sympathizes with the union.
Video
ID                                       : 1
Format                                   : AVC
Format/Info                              : Advanced Video Codec
Format profile                           : [email protected]
Format settings                          : CABAC / 9 Ref Frames
Format settings, CABAC                   : Yes
Format settings, Reference frames        : 9 frames
Codec ID                                 : V_MPEG4/ISO/AVC
Duration                                 : 1 h 27 min
Bit rate                                 : 6 686 kb/s
Width                                    : 1 280 pixels
Height                                   : 694 pixels
Display aspect ratio                     : 1.85:1
Frame rate mode                          : Constant
Frame rate                               : 23.976 (24000/1001/189150) FPS
Color space                              : YUV
Chroma subsampling                       : 4:2:0
Bit depth                                : 8 bits
Scan type                                : Progressive
Bits/(Pixel*Frame)                       : 0.314
Stream size                              : 4.10 GiB (89%)
Writing library                          : x264 core 161 r3027 4121277
Encoding settings                        : cabac=1 / ref=9 / deblock=1:-3:-3 / analyse=0x3:0x133 / me=umh / subme=10 / psy=1 / psy_rd=1.50:0.15 / mixed_ref=1 / me_range=24 / chroma_me=1 / trellis=2 / 8x8dct=1 / cqm=0 / deadzone=21,11 / fast_pskip=0 / chroma_qp_offset=-3 / threads=22 / lookahead_threads=3 / sliced_threads=0 / nr=0 / decimate=0 / interlaced=0 / bluray_compat=0 / constrained_intra=0 / bframes=8 / b_pyramid=2 / b_adapt=2 / b_bias=0 / direct=3 / weightb=1 / open_gop=0 / weightp=2 / keyint=250 / keyint_min=23 / scenecut=40 / intra_refresh=0 / rc_lookahead=60 / rc=crf / mbtree=1 / crf=20.0 / qcomp=0.60 / qpmin=0 / qpmax=69 / qpstep=4 / ip_ratio=1.40 / aq=3:0.50
Default                                  : Yes
Forced                                   : No
Color range                              : Limited
Matrix coefficients                      : BT.709

Audio #1
ID                                       : 2
Format                                   : FLAC
Format/Info                              : Free Lossless Audio Codec
Codec ID                                 : A_FLAC
Duration                                 : 1 h 27 min
Bit rate mode                            : Variable
Bit rate                                 : 683 kb/s
Channel(s)                               : 1 channel
Channel layout                           : C
Sampling rate                            : 48.0 kHz
Frame rate                               : 11.719 FPS (4096 SPF)
Bit depth                                : 24 bits
Compression mode                         : Lossless
Stream size                              : 429 MiB (9%)
Writing library                          : libFLAC 1.3.2 (UTC 2017-01-01)
Language                                 : English
Default                                  : Yes
Forced                                   : No

Audio #2
ID                                       : 3
Format                                   : AAC LC
Format/Info                              : Advanced Audio Codec Low Complexity
Codec ID                                 : A_AAC-2
Duration                                 : 1 h 27 min
Bit rate                                 : 96.0 kb/s
Channel(s)                               : 2 channels
Channel layout                           : L R
Sampling rate                            : 48.0 kHz
Frame rate                               : 46.875 FPS (1024 SPF)
Compression mode                         : Lossy
Delay relative to video                  : 20 ms
Stream size                              : 59.8 MiB (1%)
Title                                    : Commentary
Language                                 : English
Default                                  : No
Forced                                   : No

Text
ID                                       : 4
Format                                   : PGS
Muxing mode                              : zlib
Codec ID                                 : S_HDMV/PGS
Codec ID/Info                            : Picture based subtitle format used on BDs/HD-DVDs
Duration                                 : 1 h 27 min
Bit rate                                 : 43.2 kb/s
Count of elements                        : 2378
Stream size                              : 27.0 MiB (1%)
Title                                    : SDH
Language                                 : English
Default                                  : No
Forced                                   : No

Menu
00:00:00.000                             : en:Chapter 01
00:10:24.916                             : en:Chapter 02
00:18:43.372                             : en:Chapter 03
00:26:05.522                             : en:Chapter 04
00:36:15.256                             : en:Chapter 05
00:42:57.742                             : en:Chapter 06
00:52:43.952                             : en:Chapter 07
00:59:38.241                             : en:Chapter 08
01:11:13.728                             : en:Chapter 09
01:18:21.238                             : en:Chapter 10




                                                                                                                                                                                                        
                                                                                                                                                                                                                                                                                                                                                                                                                                                                                                                                                                                                                                                                                                                                                                                                                                                        
84dcc119001832472295c848626688fb.zip (46.61 KB, 下载次数: 0)

回复

使用道具 举报

小黑屋|百度云资源论坛 |网站地图

本网站所有资源来自网络,如无意中侵犯了您的权益,请发邮件至 [email protected],立即清除相关链接

GMT+8, 2021-1-20 11:44 , Processed in 0.098590 second(s), 23 queries .

Powered by Discuz! X3.2

© 2001-2013 Comsenz Inc.

快速回复 返回顶部 返回列表