百度云资源论坛

 找回密码
 立即注册
搜索

好人不长命/械劫为红颜 The.Good.Die.Young.1954.720p.BluRay.x264-ORBS 7.23GB ... ...

[复制链接]
百度云电影 发表于 2020-12-27 09:15:42 | 显示全部楼层 |阅读模式
-->
帖子完整标题:好人不长命/械劫为红颜 The.Good.Die.Young.1954.720p.BluRay.x264-ORBS 7.23GB




◎译  名 好人不长命/械劫为红颜
◎片  名 The Good Die Young
◎年  代 1954
◎产  地 英国
◎类  别 剧情 / 惊悚 / 犯罪
◎语  言 英语
◎上映日期 1954
◎IMDb评分  6.7/10 from 824 users
◎  https://www.imdb.com/title/tt0047040/
◎豆瓣评分 /10 from 0 users
◎ 
◎片  长 100 分钟
◎导  演 刘易斯·吉尔伯特 Lewis Gilbert
◎编  剧 刘易斯·吉尔伯特 Lewis Gilbert / 弗农·哈里斯 Vernon Harris / 理查德·麦考利 Richard Macaulay
◎主  演 格洛丽亚·格雷厄姆 Gloria Grahame
       劳伦斯·哈维 Laurence Harvey
       理查德·贝斯哈特 Richard Basehart
       斯坦利·贝克 Stanley Baker
       琼·柯琳斯 Joan Collins
       约翰·爱尔兰 John Ireland
       弗里达·杰克逊 Freda Jackson
       詹姆斯·肯尼 James Kenney
       帕特里夏·欧文斯 Patricia Owens
       休·莫克西 Hugh Moxey
       李·帕特森 Lee Patterson
       麦克唐纳·帕克 MacDonald Parke
       菲利普·雷 Philip Ray
       哈罗德·西登斯 Harold Siddons
       George Rose
       苏珊·肖 Susan Shaw
       玛丽安·斯通 Marianne Stone
       Stella Hamilton
       Joan Heal
       玛格丽特·莱顿 Margaret Leighton
       爱德华·贾德 Edward Judd
       瓦尔特·胡德 Walter Hudd
       罗伯特·莫利 Robert Morley
       莱斯利·德怀尔 Leslie Dwyer
       亚历山大·达维翁 Alexander Davion
       Sandra Dorne
       蕾妮·雷 René Ray

◎标  签 英国 | Lewis_Gilbert | 英國 | 犯罪 | RichardBasehart | Margaret_Leighton | 1954 | 黑色电影

◎简  介

  Three good men - a broken boxer, an American veteran trying to win back his mother-dominated wife, and an air force sergeant married to a faithless actress - are corrupted by Miles Ravenscourt, an amoral "gentleman." Because they need money, they let Miles lure them into his scheme to rob a postal van with a large cash cargo.
Video
ID                                       : 1
Format                                   : AVC
Format/Info                              : Advanced Video Codec
Format profile                           : [email protected]
Format settings                          : CABAC / 9 Ref Frames
Format settings, CABAC                   : Yes
Format settings, Reference frames        : 9 frames
Codec ID                                 : V_MPEG4/ISO/AVC
Duration                                 : 1 h 40 min
Bit rate                                 : 9 754 kb/s
Width                                    : 1 194 pixels
Height                                   : 720 pixels
Display aspect ratio                     : 5:3
Frame rate mode                          : Constant
Frame rate                               : 24.000 FPS
Color space                              : YUV
Chroma subsampling                       : 4:2:0
Bit depth                                : 8 bits
Scan type                                : Progressive
Bits/(Pixel*Frame)                       : 0.473
Stream size                              : 6.85 GiB (95%)
Writing library                          : x264 core 161 r3027 4121277
Encoding settings                        : cabac=1 / ref=9 / deblock=1:-3:-3 / analyse=0x3:0x133 / me=umh / subme=10 / psy=1 / psy_rd=1.50:0.15 / mixed_ref=1 / me_range=24 / chroma_me=1 / trellis=2 / 8x8dct=1 / cqm=0 / deadzone=21,11 / fast_pskip=0 / chroma_qp_offset=-3 / threads=6 / lookahead_threads=1 / sliced_threads=0 / nr=0 / decimate=0 / interlaced=0 / bluray_compat=0 / constrained_intra=0 / bframes=8 / b_pyramid=2 / b_adapt=2 / b_bias=0 / direct=3 / weightb=1 / open_gop=0 / weightp=2 / keyint=250 / keyint_min=24 / scenecut=40 / intra_refresh=0 / rc_lookahead=60 / rc=crf / mbtree=1 / crf=21.0 / qcomp=0.60 / qpmin=0 / qpmax=69 / qpstep=4 / ip_ratio=1.40 / aq=3:0.50
Default                                  : Yes
Forced                                   : No
Color range                              : Limited
Matrix coefficients                      : BT.709

Audio
ID                                       : 2
Format                                   : FLAC
Format/Info                              : Free Lossless Audio Codec
Codec ID                                 : A_FLAC
Duration                                 : 1 h 40 min
Bit rate mode                            : Variable
Bit rate                                 : 529 kb/s
Channel(s)                               : 2 channels
Channel layout                           : L R
Sampling rate                            : 48.0 kHz
Frame rate                               : 11.719 FPS (4096 SPF)
Bit depth                                : 24 bits
Compression mode                         : Lossless
Stream size                              : 381 MiB (5%)
Writing library                          : libFLAC 1.3.2 (UTC 2017-01-01)
Language                                 : English
Default                                  : Yes
Forced                                   : No

Text
ID                                       : 3
Format                                   : PGS
Muxing mode                              : zlib
Codec ID                                 : S_HDMV/PGS
Codec ID/Info                            : Picture based subtitle format used on BDs/HD-DVDs
Duration                                 : 1 h 37 min
Bit rate                                 : 51.4 kb/s
Count of elements                        : 3198
Stream size                              : 36.0 MiB (0%)
Title                                    : SDH
Language                                 : English
Default                                  : No
Forced                                   : No

Menu
00:00:00.000                             : en:Chapter 01
00:12:51.625                             : en:Chapter 02
00:26:03.833                             : en:Chapter 03
00:31:10.083                             : en:Chapter 04
00:44:31.542                             : en:Chapter 05
01:01:31.167                             : en:Chapter 06
01:08:53.000                             : en:Chapter 07
01:22:13.792                             : en:Chapter 08
01:31:40.792                             : en:Chapter 09




                                                                                                                                                                                                        
                                                                                                                                                                                                                                                                                                                                                                                                                                                                                                                                                                                                                                                                                                                                                                                                                                                        
eed11c47854607ce355914edb3d4f872.zip (36.86 KB, 下载次数: 0)

回复

使用道具 举报

小黑屋|百度云资源论坛 |网站地图

本网站所有资源来自网络,如无意中侵犯了您的权益,请发邮件至 [email protected],立即清除相关链接

GMT+8, 2021-1-20 11:41 , Processed in 0.097808 second(s), 23 queries .

Powered by Discuz! X3.2

© 2001-2013 Comsenz Inc.

快速回复 返回顶部 返回列表