百度云资源论坛

 找回密码
 立即注册
搜索

一切:真实故事 Everything.The.Real.Thing.Story.2019.1080p.BluRay.x264-OR...

[复制链接]
百度云资源 发表于 2020-12-26 09:38:48 | 显示全部楼层 |阅读模式
-->
帖子完整标题:一切:真实故事 Everything.The.Real.Thing.Story.2019.1080p.BluRay.x264-ORBS 7.86GB




◎译  名 一切:真实故事
◎片  名 Everything - The Real Thing Story
◎年  代 2019
◎产  地 英国
◎类  别 纪录片
◎语  言 英语
◎上映日期 
◎IMDb评分  8.3/10 from 68 users
◎  
◎豆瓣评分 /10 from 0 users
◎ 
◎片  长 94分钟
◎导  演 Simon Sheridan
◎编  剧 Simon Sheridan
◎主  演 雅各布·安德森 Jacob Anderson
       Billy Ocean
       Kim Wilde
       大卫·埃塞克斯 David Essex
       保罗·巴伯 Paul Barber
       路易斯·埃默里克 Louis Emerick

◎标  签 英国 | 纪录片 | 电影

◎简  介

  暂无相关剧情介绍
Video
ID                                       : 1
Format                                   : AVC
Format/Info                              : Advanced Video Codec
Format profile                           :
Format settings                          : CABAC / 4 Ref Frames
Format settings, CABAC                   : Yes
Format settings, Reference frames        : 4 frames
Codec ID                                 : V_MPEG4/ISO/AVC
Duration                                 : 1 h 33 min
Bit rate                                 : 11.3 Mb/s
Width                                    : 1 920 pixels
Height                                   : 1 080 pixels
Display aspect ratio                     : 16:9
Frame rate mode                          : Constant
Frame rate                               : 25.000 FPS
Color space                              : YUV
Chroma subsampling                       : 4:2:0
Bit depth                                : 8 bits
Scan type                                : Progressive
Bits/(Pixel*Frame)                       : 0.219
Stream size                              : 7.40 GiB (94%)
Writing library                          : x264 core 161 r3027 4121277
Encoding settings                        : cabac=1 / ref=4 / deblock=1:-3:-3 / analyse=0x3:0x133 / me=umh / subme=10 / psy=1 / psy_rd=1.20:0.00 / mixed_ref=1 / me_range=24 / chroma_me=1 / trellis=2 / 8x8dct=1 / cqm=0 / deadzone=21,11 / fast_pskip=0 / chroma_qp_offset=-2 / threads=6 / lookahead_threads=1 / sliced_threads=0 / nr=0 / decimate=0 / interlaced=0 / bluray_compat=0 / constrained_intra=0 / bframes=8 / b_pyramid=2 / b_adapt=2 / b_bias=0 / direct=3 / weightb=1 / open_gop=0 / weightp=2 / keyint=250 / keyint_min=25 / scenecut=40 / intra_refresh=0 / rc_lookahead=60 / rc=crf / mbtree=1 / crf=17.0 / qcomp=0.60 / qpmin=0 / qpmax=69 / qpstep=4 / ip_ratio=1.40 / aq=3:0.90
Default                                  : Yes
Forced                                   : No
Color range                              : Limited
Matrix coefficients                      : BT.709

Audio #1
ID                                       : 2
Format                                   : FLAC
Format/Info                              : Free Lossless Audio Codec
Codec ID                                 : A_FLAC
Duration                                 : 1 h 33 min
Bit rate mode                            : Variable
Bit rate                                 : 609 kb/s
Channel(s)                               : 2 channels
Channel layout                           : L R
Sampling rate                            : 48.0 kHz
Frame rate                               : 11.719 FPS (4096 SPF)
Bit depth                                : 16 bits
Compression mode                         : Lossless
Stream size                              : 407 MiB (5%)
Writing library                          : libFLAC 1.3.2 (UTC 2017-01-01)
Language                                 : English
Default                                  : Yes
Forced                                   : No

Audio #2
ID                                       : 3
Format                                   : AAC LC
Format/Info                              : Advanced Audio Codec Low Complexity
Codec ID                                 : A_AAC-2
Duration                                 : 1 h 33 min
Bit rate                                 : 96.0 kb/s
Channel(s)                               : 2 channels
Channel layout                           : L R
Sampling rate                            : 48.0 kHz
Frame rate                               : 46.875 FPS (1024 SPF)
Compression mode                         : Lossy
Delay relative to video                  : 20 ms
Stream size                              : 65.4 MiB (1%)
Title                                    : Commentary
Language                                 : English
Default                                  : No
Forced                                   : No

Menu
00:00:00.000                             : en:Chapter 01
00:02:19.680                             : en:Chapter 02
00:05:58.920                             : en:Chapter 03
00:18:20.680                             : en:Chapter 04
00:31:52.520                             : en:Chapter 05
00:37:24.280                             : en:Chapter 06
00:56:36.200                             : en:Chapter 07
01:14:05.440                             : en:Chapter 08
01:16:12.680                             : en:Chapter 09
01:22:48.880                             : en:Chapter 10
01:27:16.920                             : en:Chapter 11
01:30:34.560                             : en:Chapter 12




                                                                                                                                                                                                        
                                                                                                                                                                                                                                                                                                                                                                                                                                                                                                                                                                                                                                                                                                                                                                                                                                                        
26be987d78aa23c31f5a06db114adf3c.zip (40.06 KB, 下载次数: 0)

回复

使用道具 举报

小黑屋|百度云资源论坛 |网站地图

本网站所有资源来自网络,如无意中侵犯了您的权益,请发邮件至 [email protected],立即清除相关链接

GMT+8, 2021-1-27 12:04 , Processed in 0.088142 second(s), 23 queries .

Powered by Discuz! X3.2

© 2001-2013 Comsenz Inc.

快速回复 返回顶部 返回列表