百度云资源论坛

 找回密码
 立即注册
搜索

极端 Extremity.2018.1080p.BluRay.x264-HANDJOB 8.24GB

[复制链接]
百度云资源 发表于 2020-12-25 09:26:07 | 显示全部楼层 |阅读模式
-->
帖子完整标题:极端 Extremity.2018.1080p.BluRay.x264-HANDJOB 8.24GB




◎译  名 极端
◎片  名 Extremity
◎年  代 2018
◎产  地 加拿大
◎类  别 恐怖
◎语  言 英语
◎上映日期 2018-09-17(美国洛杉矶) / 2019-01-11(日本)
◎IMDb评分  4.2/10 from 696 users
◎  
◎豆瓣评分 /10 from 0 users
◎ 
◎片  长 103分钟
◎导  演 安东尼·迪布拉西 Anthony DiBlasi
◎编  剧 大卫·邦德 David Bond
◎主  演 富手麻妙 Ami Tomite
       尼克·普林西比 Nick Principe

◎标  签 恐怖 | 纯粹血浆片 | 欧美电影 | 影院 | 加拿大电影 | Horror

◎简  介

  A young woman obsessed with horror, subjects herself to twelve hours of gruelling torment in an attempt to confront her own fears and conquer the tragic past which haunts her.
Video
ID                                       : 1
Format                                   : AVC
Format/Info                              : Advanced Video Codec
Format profile                           :
Format settings                          : CABAC / 5 Ref Frames
Format settings, CABAC                   : Yes
Format settings, Reference frames        : 5 frames
Codec ID                                 : V_MPEG4/ISO/AVC
Duration                                 : 1 h 38 min
Bit rate                                 : 11.5 Mb/s
Width                                    : 1 920 pixels
Height                                   : 800 pixels
Display aspect ratio                     : 2.40:1
Frame rate mode                          : Constant
Frame rate                               : 23.976 (24000/1001/189150) FPS
Color space                              : YUV
Chroma subsampling                       : 4:2:0
Bit depth                                : 8 bits
Scan type                                : Progressive
Bits/(Pixel*Frame)                       : 0.314
Stream size                              : 7.92 GiB (96%)
Writing library                          : x264 core 160 r3011 cde9a93
Encoding settings                        : cabac=1 / ref=5 / deblock=1:-3:-3 / analyse=0x3:0x133 / me=umh / subme=11 / psy=1 / psy_rd=1.00:0.00 / mixed_ref=1 / me_range=32 / chroma_me=1 / trellis=2 / 8x8dct=1 / cqm=0 / deadzone=21,11 / fast_pskip=0 / chroma_qp_offset=-2 / threads=24 / lookahead_threads=6 / sliced_threads=0 / nr=0 / decimate=0 / interlaced=0 / bluray_compat=0 / constrained_intra=0 / bframes=16 / b_pyramid=2 / b_adapt=2 / b_bias=0 / direct=3 / weightb=1 / open_gop=0 / weightp=2 / keyint=240 / keyint_min=24 / scenecut=40 / intra_refresh=0 / rc_lookahead=60 / rc=crf / mbtree=0 / crf=17.8 / qcomp=0.60 / qpmin=0 / qpmax=69 / qpstep=4 / vbv_maxrate=62500 / vbv_bufsize=78125 / crf_max=0.0 / nal_hrd=none / filler=0 / ip_ratio=1.30 / pb_ratio=1.20 / aq=1:0.90
Default                                  : Yes
Forced                                   : No
Color range                              : Limited
Color primaries                          : BT.709
Transfer characteristics                 : BT.709
Matrix coefficients                      : BT.709

Audio
ID                                       : 2
Format                                   : AC-3
Format/Info                              : Audio Coding 3
Commercial name                          : Dolby Digital
Codec ID                                 : A_AC3
Duration                                 : 1 h 38 min
Bit rate mode                            : Constant
Bit rate                                 : 448 kb/s
Channel(s)                               : 6 channels
Channel layout                           : L R C LFE Ls Rs
Sampling rate                            : 48.0 kHz
Frame rate                               : 31.250 FPS (1536 SPF)
Compression mode                         : Lossy
Stream size                              : 315 MiB (4%)
Language                                 : English
Service kind                             : Complete Main
Default                                  : Yes
Forced                                   : No

Text #1
ID                                       : 3
Format                                   : UTF-8
Codec ID                                 : S_TEXT/UTF8
Codec ID/Info                            : UTF-8 Plain Text
Duration                                 : 1 h 33 min
Bit rate                                 : 37 b/s
Count of elements                        : 1058
Stream size                              : 25.6 KiB (0%)
Language                                 : English
Default                                  : No
Forced                                   : No

Text #2
ID                                       : 4
Format                                   : UTF-8
Codec ID                                 : S_TEXT/UTF8
Codec ID/Info                            : UTF-8 Plain Text
Duration                                 : 1 h 33 min
Bit rate                                 : 45 b/s
Count of elements                        : 1231
Stream size                              : 31.4 KiB (0%)
Title                                    : Hard of Hearing
Language                                 : English
Default                                  : No
Forced                                   : No

Text #3
ID                                       : 5
Format                                   : PGS
Codec ID                                 : S_HDMV/PGS
Codec ID/Info                            : Picture based subtitle format used on BDs/HD-DVDs
Duration                                 : 1 h 32 min
Bit rate                                 : 19.8 kb/s
Count of elements                        : 2174
Stream size                              : 13.1 MiB (0%)
Language                                 : Spanish
Default                                  : No
Forced                                   : No

Menu
00:00:00.000                             : en:Chapter 01
00:07:15.726                             : en:Chapter 02
00:14:02.174                             : en:Chapter 03
00:22:42.778                             : en:Chapter 04
00:31:24.340                             : en:Chapter 05
00:39:12.767                             : en:Chapter 06
00:50:54.384                             : en:Chapter 07
00:59:21.599                             : en:Chapter 08
01:08:11.378                             : en:Chapter 09
01:16:37.551                             : en:Chapter 10
01:25:44.139                             : en:Chapter 11
01:34:02.511                             : en:Chapter 12




                                                                                                                                                                                                        
                                                                                                                                                                                                                                                                                                                                                                                                                                                                                                                                                                                                                                                                                                                                                                                                                                                        
8f2fdb3d2cf554878f700d5eb3d20751.zip (41.85 KB, 下载次数: 0)

回复

使用道具 举报

小黑屋|百度云资源论坛 |网站地图

本网站所有资源来自网络,如无意中侵犯了您的权益,请发邮件至 [email protected],立即清除相关链接

GMT+8, 2021-1-27 11:00 , Processed in 0.101272 second(s), 23 queries .

Powered by Discuz! X3.2

© 2001-2013 Comsenz Inc.

快速回复 返回顶部 返回列表