百度云资源论坛

 找回密码
 立即注册
搜索

草稿 A.Rough.Draft.2018.RUSSIAN.1080p.BluRay.x264-EDPH 13.85GB

[复制链接]
百度云资源 发表于 2020-12-25 09:26:07 | 显示全部楼层 |阅读模式
-->
帖子完整标题:草稿 A.Rough.Draft.2018.RUSSIAN.1080p.BluRay.x264-EDPH 13.85GB




◎译  名 草稿/Chernovik/Rough Draft/The Draft/创世草案
◎片  名 Черновик
◎年  代 2018
◎产  地 俄罗斯
◎类  别 科幻
◎语  言 俄语 Russian
◎上映日期 2018-05-25(俄罗斯)
◎IMDb评分  4.4/10 from 1439 users
◎  
◎豆瓣评分 5.7/10 from 535 users
◎ 
◎片  长 112分钟
◎导  演 谢尔盖·马克利斯基 Sergey Mokritskiy
◎编  剧 丹尼斯·库雷舍夫 Denis Kuryshev / 谢尔盖·马克利斯基 Sergey Mokritskiy / Sergey Lukyanenko
◎主  演 斯维里娅·雅努索斯凯伊特 Severija Janusauskaite
       尤利娅·别列希尔德 Yuliya Peresild
       安德烈·梅尔兹利金 Andrey Merzlikin

◎标  签 科幻 | 俄罗斯 | 奇幻 | 俄国电影 | 2018 | 黑色幽默 | 俄罗斯电影 | 电影

◎简  介

  天才程序员基里尔为公司完成重要项目,成功为公司制作出虚拟的世界。但就在他准备收获名誉与金钱时,现实世界却突然面目全非。面对陌生的一切,他必须找到办法回到自己所熟知的现实之中。
Video
ID                                       : 1
Format                                   : AVC
Format/Info                              : Advanced Video Codec
Format profile                           :
Format settings                          : CABAC / 5 Ref Frames
Format settings, CABAC                   : Yes
Format settings, Reference frames        : 5 frames
Codec ID                                 : V_MPEG4/ISO/AVC
Duration                                 : 1 h 55 min
Bit rate                                 : 16.5 Mb/s
Width                                    : 1 920 pixels
Height                                   : 804 pixels
Display aspect ratio                     : 2.40:1
Frame rate mode                          : Constant
Frame rate                               : 24.000 FPS
Color space                              : YUV
Chroma subsampling                       : 4:2:0
Bit depth                                : 8 bits
Scan type                                : Progressive
Bits/(Pixel*Frame)                       : 0.446
Stream size                              : 13.3 GiB (96%)
Writing library                          : x264 core 160 r3009 4c9b076
Encoding settings                        : cabac=1 / ref=5 / deblock=1:-3:-3 / analyse=0x3:0x133 / me=umh / subme=11 / psy=1 / psy_rd=1.02:0.00 / mixed_ref=1 / me_range=32 / chroma_me=1 / trellis=2 / 8x8dct=1 / cqm=0 / deadzone=21,11 / fast_pskip=0 / chroma_qp_offset=-2 / threads=12 / lookahead_threads=3 / sliced_threads=0 / nr=0 / decimate=0 / interlaced=0 / bluray_compat=0 / constrained_intra=0 / bframes=16 / b_pyramid=2 / b_adapt=2 / b_bias=0 / direct=3 / weightb=1 / open_gop=0 / weightp=2 / keyint=250 / keyint_min=24 / scenecut=40 / intra_refresh=0 / rc_lookahead=250 / rc=crf / mbtree=0 / crf=17.1 / qcomp=0.65 / qpmin=0 / qpmax=69 / qpstep=4 / vbv_maxrate=62500 / vbv_bufsize=78125 / crf_max=0.0 / nal_hrd=none / filler=0 / ip_ratio=1.30 / pb_ratio=1.20 / aq=3:0.80
Default                                  : No
Forced                                   : No
Color range                              : Limited
Color primaries                          : BT.709
Matrix coefficients                      : BT.709

Audio
ID                                       : 2
Format                                   : AC-3
Format/Info                              : Audio Coding 3
Commercial name                          : Dolby Digital
Codec ID                                 : A_AC3
Duration                                 : 1 h 55 min
Bit rate mode                            : Constant
Bit rate                                 : 640 kb/s
Channel(s)                               : 6 channels
Channel layout                           : L R C LFE Ls Rs
Sampling rate                            : 48.0 kHz
Frame rate                               : 31.250 FPS (1536 SPF)
Compression mode                         : Lossy
Stream size                              : 529 MiB (4%)
Language                                 : Russian
Service kind                             : Complete Main
Default                                  : No
Forced                                   : No

Text
ID                                       : 3
Format                                   : UTF-8
Codec ID                                 : S_TEXT/UTF8
Codec ID/Info                            : UTF-8 Plain Text
Duration                                 : 1 h 51 min
Bit rate                                 : 42 b/s
Count of elements                        : 1561
Stream size                              : 34.8 KiB (0%)
Language                                 : English
Default                                  : Yes
Forced                                   : No

Menu
00:00:00.000                             : en:Chapter 01
00:02:40.291                             : en:Chapter 02
00:05:48.375                             : en:Chapter 03
00:10:01.333                             : en:Chapter 04
00:13:08.041                             : en:Chapter 05
00:19:07.000                             : en:Chapter 06
00:22:56.333                             : en:Chapter 07
00:29:18.625                             : en:Chapter 08
00:36:24.583                             : en:Chapter 09
00:41:59.583                             : en:Chapter 10
00:46:21.208                             : en:Chapter 11
00:52:56.291                             : en:Chapter 12
01:00:12.416                             : en:Chapter 13
01:03:48.333                             : en:Chapter 14
01:12:32.458                             : en:Chapter 15
01:18:14.583                             : en:Chapter 16
01:21:37.291                             : en:Chapter 17
01:25:17.125                             : en:Chapter 18
01:28:57.083                             : en:Chapter 19
01:32:48.208                             : en:Chapter 20
01:37:04.000                             : en:Chapter 21
01:44:50.333                             : en:Chapter 22
01:47:57.250                             : en:Chapter 23
01:50:27.958                             : en:Chapter 24




                                                                                                                                                                                                        
                                                                                                                                                                                                                                                                                                                                                                                                                                                                                                                                                                                                                                                                                                                                                                                                                                                        
94fd43a28614274ec3070878a4448659.zip (69.92 KB, 下载次数: 0)

回复

使用道具 举报

小黑屋|百度云资源论坛 |网站地图

本网站所有资源来自网络,如无意中侵犯了您的权益,请发邮件至 [email protected],立即清除相关链接

GMT+8, 2021-1-27 12:30 , Processed in 0.096044 second(s), 23 queries .

Powered by Discuz! X3.2

© 2001-2013 Comsenz Inc.

快速回复 返回顶部 返回列表