百度云资源论坛

 找回密码
 立即注册
搜索

女巫/女巫们 The.Witches.2020.1080p.BluRay.x264-SCARE 10.47GB

[复制链接]
百度云资源 发表于 2020-12-24 12:16:00 | 显示全部楼层 |阅读模式
-->
帖子完整标题:女巫/女巫们 The.Witches.2020.1080p.BluRay.x264-SCARE 10.47GB




◎译  名 女巫/女巫们(台)/女巫再现/怪诞黑巫后(港)
◎片  名 The Witches
◎年  代 2020
◎产  地 美国,墨西哥,英国
◎类  别 喜剧 / 奇幻 / 冒险
◎语  言 英语
◎上映日期 2020-10-22(美国)
◎IMDb评分  5.3/10 from 18364 users
◎  
◎豆瓣评分 5.8/10 from 14478 users
◎ 
◎片  长 106分钟
◎导  演 罗伯特·泽米吉斯 Robert Zemeckis
◎编  剧 罗伯特·泽米吉斯 Robert Zemeckis / 肯尼亚·巴里斯 Kenya Barris / 吉尔莫·德尔·托罗 Guillermo del Toro / 罗尔德·达尔 Roald Dahl
◎主  演 安妮·海瑟薇 Anne Hathaway
       奥克塔维亚·斯宾瑟 Octavia Spencer
       斯坦利·图齐 Stanley Tucci
       克里斯汀·肯诺恩斯 Kristin Chenoweth
       克里斯·洛克 Chris Rock
       查尔斯·爱德华兹 Charles Edwards
       尤吉尼亚·克鲁索 Eugenia Caruso
       西蒙·曼永达 Simon Manyonda
       菲利普·斯波 Philippe Spall
       安格斯·瑞特 Angus Wright
       奥尔拉·欧鲁尔克 Orla O'Rourke
       吉米·斯达 Jimmy Star
       杰齐尔·布鲁诺 Jahzir Bruno

◎标  签 奇幻 | 安妮·海瑟薇 | 美国 | 2020 | 美国电影 | 惊悚 | 改编 | AnneHathaway

◎简  介

  该片基于罗尔德·达尔(《查理和巧克力工厂》原著作者)所著同名儿童小说,部分设定在挪威,部分设定在英国,讲述一个7岁小男孩和祖母住在一起,这个世界中存在着邪恶女巫,某次他偶遇女巫,被变成了老鼠,他必须尽力阻止她们破坏世界。
Video
ID                                       : 1
Format                                   : AVC
Format/Info                              : Advanced Video Codec
Format profile                           :
Format settings                          : CABAC / 5 Ref Frames
Format settings, CABAC                   : Yes
Format settings, Reference frames        : 5 frames
Codec ID                                 : V_MPEG4/ISO/AVC
Duration                                 : 1 h 44 min
Bit rate                                 : 10.7 Mb/s
Width                                    : 1 920 pixels
Height                                   : 804 pixels
Display aspect ratio                     : 2.40:1
Frame rate mode                          : Constant
Frame rate                               : 23.976 (24000/1001/189150) FPS
Color space                              : YUV
Chroma subsampling                       : 4:2:0
Bit depth                                : 8 bits
Scan type                                : Progressive
Bits/(Pixel*Frame)                       : 0.289
Stream size                              : 7.80 GiB (75%)
Writing library                          : x264 core 161 r3027 4121277
Encoding settings                        : cabac=1 / ref=5 / deblock=1:-3:-3 / analyse=0x3:0x133 / me=umh / subme=10 / psy=1 / psy_rd=1.20:0.00 / mixed_ref=1 / me_range=24 / chroma_me=1 / trellis=2 / 8x8dct=1 / cqm=0 / deadzone=21,11 / fast_pskip=0 / chroma_qp_offset=-2 / threads=24 / lookahead_threads=4 / sliced_threads=0 / nr=0 / decimate=0 / interlaced=0 / bluray_compat=0 / constrained_intra=0 / bframes=8 / b_pyramid=2 / b_adapt=2 / b_bias=0 / direct=3 / weightb=1 / open_gop=0 / weightp=2 / keyint=250 / keyint_min=23 / scenecut=40 / intra_refresh=0 / rc_lookahead=60 / rc=crf / mbtree=1 / crf=15.5 / qcomp=0.60 / qpmin=0 / qpmax=69 / qpstep=4 / ip_ratio=1.40 / aq=3:0.90
Default                                  : Yes
Forced                                   : No
Color range                              : Limited
Matrix coefficients                      : BT.709

Audio
ID                                       : 2
Format                                   : DTS XLL
Format/Info                              : Digital Theater Systems
Commercial name                          : DTS-HD Master Audio
Codec ID                                 : A_DTS
Duration                                 : 1 h 44 min
Bit rate mode                            : Variable
Bit rate                                 : 3 626 kb/s
Channel(s)                               : 6 channels
Channel layout                           : C L R Ls Rs LFE
Sampling rate                            : 48.0 kHz
Frame rate                               : 93.750 FPS (512 SPF)
Bit depth                                : 24 bits
Compression mode                         : Lossless
Stream size                              : 2.64 GiB (25%)
Language                                 : English
Default                                  : Yes
Forced                                   : No

Text #1
ID                                       : 3
Format                                   : PGS
Muxing mode                              : zlib
Codec ID                                 : S_HDMV/PGS
Codec ID/Info                            : Picture based subtitle format used on BDs/HD-DVDs
Duration                                 : 1 h 36 min
Bit rate                                 : 42.9 kb/s
Count of elements                        : 3174
Stream size                              : 29.6 MiB (0%)
Title                                    : SDH
Language                                 : English
Default                                  : No
Forced                                   : No

Text #2
ID                                       : 4
Format                                   : PGS
Muxing mode                              : zlib
Codec ID                                 : S_HDMV/PGS
Codec ID/Info                            : Picture based subtitle format used on BDs/HD-DVDs
Duration                                 : 1 h 43 min
Bit rate                                 : 30.1 kb/s
Count of elements                        : 2732
Stream size                              : 22.3 MiB (0%)
Language                                 : French
Default                                  : No
Forced                                   : No

Text #3
ID                                       : 5
Format                                   : PGS
Muxing mode                              : zlib
Codec ID                                 : S_HDMV/PGS
Codec ID/Info                            : Picture based subtitle format used on BDs/HD-DVDs
Duration                                 : 1 h 43 min
Bit rate                                 : 36.7 kb/s
Count of elements                        : 3150
Stream size                              : 27.2 MiB (0%)
Language                                 : Italian
Default                                  : No
Forced                                   : No

Menu
00:00:00.000                             : en:Chapter 01
00:04:03.869                             : en:Chapter 02
00:13:14.794                             : en:Chapter 03
00:22:01.529                             : en:Chapter 04
00:30:30.120                             : en:Chapter 05
00:38:44.322                             : en:Chapter 06
00:44:19.532                             : en:Chapter 07
00:52:37.154                             : en:Chapter 08
01:00:47.352                             : en:Chapter 09
01:07:36.511                             : en:Chapter 10
01:15:25.312                             : en:Chapter 11
01:22:22.437                             : en:Chapter 12
01:31:18.932                             : en:Chapter 13
01:35:29.641                             : en:Chapter 14




                                                                                                                                                                                                        
                                                                                                                                                                                                                                                                                                                                                                                                                                                                                                                                                                                                                                                                                                                                                                                                                                                        
a58ec2ab46352256d3ff6a47c4cd3ac7.zip (53.03 KB, 下载次数: 0)

回复

使用道具 举报

小黑屋|百度云资源论坛 |网站地图

本网站所有资源来自网络,如无意中侵犯了您的权益,请发邮件至 [email protected],立即清除相关链接

GMT+8, 2021-1-23 08:29 , Processed in 0.096014 second(s), 23 queries .

Powered by Discuz! X3.2

© 2001-2013 Comsenz Inc.

快速回复 返回顶部 返回列表