百度云资源论坛

 找回密码
 立即注册
搜索

魔女游戏/入魔 The.Craft.Legacy.2020.1080p.BluRay.x264-WoAT 8.33GB

[复制链接]
百度云电影 发表于 2020-12-24 12:16:00 | 显示全部楼层 |阅读模式
-->
帖子完整标题:魔女游戏/入魔 The.Craft.Legacy.2020.1080p.BluRay.x264-WoAT 8.33GB




◎译  名 魔女游戏/入魔(台)/我们的女巫手册(港)/新魔女游戏/魔女游戏:遗产
◎片  名 The Craft: Legacy
◎年  代 2020
◎产  地 美国
◎类  别 剧情 / 恐怖 / 奇幻
◎语  言 英语
◎上映日期 2020-10-28(美国)
◎IMDb评分  4.3/10 from 5295 users
◎  
◎豆瓣评分 4.3/10 from 602 users
◎ 
◎片  长 97分钟
◎导  演 佐伊·利斯特·琼斯 Zoe Lister Jones
◎编  剧 佐伊·利斯特·琼斯 Zoe Lister Jones / 丽恩·贾尼埃克 Leigh Janiak
◎主  演 卡莉·史派妮 Cailee Spaeny
       大卫·杜楚尼 David Duchovny
       米歇尔·莫纳汉 Michelle Monaghan
       吉第安·艾朵 Gideon Adlon
       尼古拉斯·加利齐纳 Nicholas Galitzine
       拉维·西蒙尼 Lovie Simone
       查尔斯·万德瓦尔特 Charles Vandervaart
       小唐纳德·麦克莱恩 Donald MacLean Jr.
       汉娜·戈登 Hannah Gordon
       朱利安·格雷 Julian Grey
       詹姆斯·马奇 James Madge

◎标  签 奇幻 | 美国 | 恐怖 | 2020 | 剧情 | 翻拍 | 美国电影 | 改编

◎简  介

  Blumhouse公司翻拍的经典恐怖片《魔女游戏》确定了导演人选,女导演佐伊·利斯特·琼斯(《创可贴》)将为新片撰写剧本并执导,值得一提的是Blumhouse CEO之前还因对女性导演的言论受到了非议。原版导演中,四个在学校中被孤立的女孩走到了一起,她们希望召唤出鬼神来让自己糟糕的生活得到改变,但怎么会有免费的午餐呢?
Video
ID                                       : 1
Format                                   : AVC
Format/Info                              : Advanced Video Codec
Format profile                           :
Format settings                          : CABAC / 5 Ref Frames
Format settings, CABAC                   : Yes
Format settings, Reference frames        : 5 frames
Codec ID                                 : V_MPEG4/ISO/AVC
Duration                                 : 1 h 34 min
Bit rate                                 : 9 265 kb/s
Width                                    : 1 920 pixels
Height                                   : 800 pixels
Display aspect ratio                     : 2.40:1
Frame rate mode                          : Constant
Frame rate                               : 23.976 (24000/1001/189150) FPS
Color space                              : YUV
Chroma subsampling                       : 4:2:0
Bit depth                                : 8 bits
Scan type                                : Progressive
Bits/(Pixel*Frame)                       : 0.252
Stream size                              : 6.11 GiB (73%)
Writing library                          : x264 core 161 r3027 4121277
Encoding settings                        : cabac=1 / ref=5 / deblock=1:-3:-3 / analyse=0x3:0x133 / me=umh / subme=9 / psy=1 / psy_rd=1.00:0.00 / mixed_ref=1 / me_range=32 / chroma_me=1 / trellis=2 / 8x8dct=1 / cqm=0 / deadzone=21,11 / fast_pskip=0 / chroma_qp_offset=-2 / threads=16 / lookahead_threads=2 / sliced_threads=0 / nr=0 / decimate=0 / interlaced=0 / bluray_compat=0 / constrained_intra=0 / bframes=8 / b_pyramid=2 / b_adapt=2 / b_bias=0 / direct=3 / weightb=1 / open_gop=0 / weightp=2 / keyint=250 / keyint_min=23 / scenecut=40 / intra_refresh=0 / rc_lookahead=60 / rc=crf / mbtree=1 / crf=16.0 / qcomp=0.60 / qpmin=0 / qpmax=69 / qpstep=4 / ip_ratio=1.40 / aq=3:0.88
Default                                  : Yes
Forced                                   : No
Color range                              : Limited
Matrix coefficients                      : BT.709

Audio
ID                                       : 2
Format                                   : DTS XLL
Format/Info                              : Digital Theater Systems
Commercial name                          : DTS-HD Master Audio
Codec ID                                 : A_DTS
Duration                                 : 1 h 34 min
Bit rate mode                            : Variable
Bit rate                                 : 3 312 kb/s
Channel(s)                               : 6 channels
Channel layout                           : C L R Ls Rs LFE
Sampling rate                            : 48.0 kHz
Frame rate                               : 93.750 FPS (512 SPF)
Bit depth                                : 24 bits
Compression mode                         : Lossless
Stream size                              : 2.18 GiB (26%)
Title                                    : English
Language                                 : English
Default                                  : No
Forced                                   : No

Text #1
ID                                       : 3
Format                                   : PGS
Muxing mode                              : zlib
Codec ID                                 : S_HDMV/PGS
Codec ID/Info                            : Picture based subtitle format used on BDs/HD-DVDs
Duration                                 : 1 h 31 min
Bit rate                                 : 34.1 kb/s
Count of elements                        : 2516
Stream size                              : 22.3 MiB (0%)
Title                                    : English (SDH)
Language                                 : English
Default                                  : No
Forced                                   : No

Text #2
ID                                       : 4
Format                                   : PGS
Muxing mode                              : zlib
Codec ID                                 : S_HDMV/PGS
Codec ID/Info                            : Picture based subtitle format used on BDs/HD-DVDs
Duration                                 : 1 h 24 min
Bit rate                                 : 29.9 kb/s
Count of elements                        : 2006
Stream size                              : 18.1 MiB (0%)
Title                                    : English
Language                                 : English
Default                                  : No
Forced                                   : No

Text #3
ID                                       : 5
Format                                   : PGS
Muxing mode                              : zlib
Codec ID                                 : S_HDMV/PGS
Codec ID/Info                            : Picture based subtitle format used on BDs/HD-DVDs
Duration                                 : 1 h 33 min
Bit rate                                 : 23.5 kb/s
Count of elements                        : 1972
Stream size                              : 15.7 MiB (0%)
Title                                    : French
Language                                 : French
Default                                  : No
Forced                                   : No

Text #4
ID                                       : 6
Format                                   : PGS
Muxing mode                              : zlib
Codec ID                                 : S_HDMV/PGS
Codec ID/Info                            : Picture based subtitle format used on BDs/HD-DVDs
Duration                                 : 1 h 33 min
Bit rate                                 : 25.3 kb/s
Count of elements                        : 1982
Stream size                              : 16.9 MiB (0%)
Title                                    : Spanish
Language                                 : Spanish
Default                                  : No
Forced                                   : No

Menu
00:00:00.000                             : en:Chapter 01
00:05:41.382                             : en:Chapter 02
00:11:13.923                             : en:Chapter 03
00:16:35.995                             : en:Chapter 04
00:21:00.259                             : en:Chapter 05
00:27:25.393                             : en:Chapter 06
00:32:54.097                             : en:Chapter 07
00:39:43.881                             : en:Chapter 08
00:44:14.693                             : en:Chapter 09
00:48:57.309                             : en:Chapter 10
00:55:32.996                             : en:Chapter 11
01:00:29.125                             : en:Chapter 12
01:06:41.372                             : en:Chapter 13
01:11:16.522                             : en:Chapter 14
01:15:37.407                             : en:Chapter 15
01:23:36.094                             : en:Chapter 16




                                                                                                                                                                                                        
                                                                                                                                                                                                                                                                                                                                                                                                                                                                                                                                                                                                                                                                                                                                                                                                                                                        
405ca9a2e5f03e68193e5206052e3041.zip (42.38 KB, 下载次数: 0)

回复

使用道具 举报

小黑屋|百度云资源论坛 |网站地图

本网站所有资源来自网络,如无意中侵犯了您的权益,请发邮件至 [email protected],立即清除相关链接

GMT+8, 2021-1-27 12:41 , Processed in 0.101845 second(s), 23 queries .

Powered by Discuz! X3.2

© 2001-2013 Comsenz Inc.

快速回复 返回顶部 返回列表