百度云资源论坛

 找回密码
 立即注册
搜索

浴室墙上的字 Words.on.Bathroom.Walls.2020.720p.BluRay.x264-PiGNUS 3.70GB

[复制链接]
-->
帖子完整标题:浴室墙上的字 Words.on.Bathroom.Walls.2020.720p.BluRay.x264-PiGNUS 3.70GB




◎译  名 浴室墙上的字
◎片  名 Words on Bathroom Walls
◎年  代 2020
◎产  地 美国
◎类  别 剧情
◎语  言 英语
◎上映日期 2020-08-21(美国)
◎IMDb评分  6.8/10 from 906 users
◎  https://www.imdb.com/title/tt8045906/
◎豆瓣评分 /10 from 0 users
◎ 
◎片  长 111分钟
◎导  演 托尔·弗罗伊登塔尔 Thor Freudenthal
◎主  演 查理·普拉默 Charlie Plummer
       莫莉·帕克 Molly Parker
       泰勒·拉塞尔 Taylor Russell
       沃尔顿·戈金斯 Walton Goggins
       安娜索菲亚·罗伯 AnnaSophia Robb
       安迪·加西亚 Andy Garcia
       戴文·博斯蒂克 Devon Bostick
       贝丝·格兰特 Beth Grant
       洛博·塞巴斯蒂安 Lobo Sebastian
       德鲁·谢伊德 Drew Scheid
       杰拉德·班肯斯 Jared Bankens

◎标  签 烟鬼组合 | 美国 | 2020 | 剧情 | 美国电影 | 电影 | 改编 | 安娜索菲亚罗伯

◎简  介

  讲述男孩亚当被诊断患有精神分裂症,他去到一所新学校就读,开始服用新药,一开始效果看起来很不错,不过很快真相大白,他被迫做出一些艰难的决定。罗素饰演亚当的梦中情人玛雅,罗伯饰演丽贝卡,是亚当幻觉中的主要角色,作为他不能表达的情绪的管道。Nick Naveda编写剧本,基于Julia Walton所著同名小说,Mickey Liddell&Pete Shilaimon(《第一夫人》《类人猿行动》)制片。
Video
ID                                       : 1
Format                                   : AVC
Format/Info                              : Advanced Video Codec
Format profile                           : [email protected]
Format settings                          : CABAC / 8 Ref Frames
Format settings, CABAC                   : Yes
Format settings, Reference frames        : 8 frames
Codec ID                                 : V_MPEG4/ISO/AVC
Duration                                 : 1 h 50 min
Bit rate                                 : 4 109 kb/s
Width                                    : 1 280 pixels
Height                                   : 536 pixels
Display aspect ratio                     : 2.40:1
Frame rate mode                          : Constant
Frame rate                               : 23.976 (24000/1001/189150) FPS
Color space                              : YUV
Chroma subsampling                       : 4:2:0
Bit depth                                : 8 bits
Scan type                                : Progressive
Bits/(Pixel*Frame)                       : 0.250
Stream size                              : 3.18 GiB (86%)
Writing library                          : x264 core 161 r3027 4121277
Encoding settings                        : cabac=1 / ref=8 / deblock=1:-3:-3 / analyse=0x3:0x133 / me=umh / subme=9 / psy=1 / psy_rd=1.00:0.00 / mixed_ref=1 / me_range=16 / chroma_me=1 / trellis=2 / 8x8dct=1 / cqm=0 / deadzone=21,11 / fast_pskip=1 / chroma_qp_offset=-2 / threads=17 / lookahead_threads=1 / sliced_threads=0 / nr=0 / decimate=1 / interlaced=0 / bluray_compat=0 / constrained_intra=0 / bframes=3 / b_pyramid=2 / b_adapt=2 / b_bias=0 / direct=3 / weightb=1 / open_gop=0 / weightp=2 / keyint=250 / keyint_min=23 / scenecut=40 / intra_refresh=0 / rc_lookahead=60 / rc=crf / mbtree=1 / crf=14.5 / qcomp=0.60 / qpmin=0 / qpmax=69 / qpstep=4 / ip_ratio=1.40 / aq=1:1.00
Language                                 : English
Default                                  : Yes
Forced                                   : No

Audio
ID                                       : 2
Format                                   : AC-3
Format/Info                              : Audio Coding 3
Commercial name                          : Dolby Digital
Codec ID                                 : A_AC3
Duration                                 : 1 h 50 min
Bit rate mode                            : Constant
Bit rate                                 : 640 kb/s
Channel(s)                               : 6 channels
Channel layout                           : L R C LFE Ls Rs
Sampling rate                            : 48.0 kHz
Frame rate                               : 31.250 FPS (1536 SPF)
Compression mode                         : Lossy
Stream size                              : 506 MiB (13%)
Language                                 : English
Service kind                             : Complete Main
Default                                  : Yes
Forced                                   : No

Text #1
ID                                       : 3
Format                                   : PGS
Muxing mode                              : zlib
Codec ID                                 : S_HDMV/PGS
Codec ID/Info                            : Picture based subtitle format used on BDs/HD-DVDs
Duration                                 : 1 h 42 min
Bit rate                                 : 51.4 kb/s
Count of elements                        : 3978
Stream size                              : 37.8 MiB (1%)
Title                                    : English SDH
Language                                 : English
Default                                  : No
Forced                                   : No

Text #2
ID                                       : 4
Format                                   : PGS
Muxing mode                              : zlib
Codec ID                                 : S_HDMV/PGS
Codec ID/Info                            : Picture based subtitle format used on BDs/HD-DVDs
Duration                                 : 1 h 42 min
Bit rate                                 : 48.5 kb/s
Count of elements                        : 2658
Stream size                              : 35.6 MiB (1%)
Title                                    : Spanish
Language                                 : Spanish
Default                                  : No
Forced                                   : No

Menu
00:00:00.000                             : en:Chapter 01
00:06:31.016                             : en:Chapter 02
00:16:49.008                             : en:Chapter 03
00:22:59.378                             : en:Chapter 04
00:29:52.791                             : en:Chapter 05
00:36:10.168                             : en:Chapter 06
00:43:07.585                             : en:Chapter 07
00:51:50.107                             : en:Chapter 08
00:58:41.518                             : en:Chapter 09
01:05:11.533                             : en:Chapter 10
01:09:41.803                             : en:Chapter 11
01:14:14.075                             : en:Chapter 12
01:19:40.776                             : en:Chapter 13
01:31:19.099                             : en:Chapter 14
01:36:31.411                             : en:Chapter 15
01:44:19.253                             : en:Chapter 16
01:50:37.589                             : en:Chapter 17




                                                                                                                                                                                                        
                                                                                                                                                                                                                                                                                                                                                                                                                                                                                                                                                                                                                                                                                                                                                                                                                                                        
4271e61a03d1edef4f4bf5f1871bbed0.zip (37.77 KB, 下载次数: 0)

回复

使用道具 举报

小黑屋|百度云资源论坛 |网站地图

本网站所有资源来自网络,如无意中侵犯了您的权益,请发邮件至 [email protected],立即清除相关链接

GMT+8, 2020-11-27 07:32 , Processed in 0.102213 second(s), 23 queries .

Powered by Discuz! X3.2

© 2001-2013 Comsenz Inc.

快速回复 返回顶部 返回列表