百度云资源论坛

 找回密码
 立即注册
搜索

博物馆 Museo.2018.1080p.BluRay.x264-USURY 16.99GB

[复制链接]
百度云电影 发表于 2020-11-21 15:02:49 | 显示全部楼层 |阅读模式
-->
帖子完整标题:博物馆 Museo.2018.1080p.BluRay.x264-USURY 16.99GB


[/url]

◎译  名 博物馆/Museum/博物馆偷很大(台)
◎片  名 Museo
◎年  代 2018
◎产  地 墨西哥
◎类  别 剧情 / 犯罪
◎语  言 西班牙语
◎上映日期 2018-02-22(柏林电影节) / 2018-08-23(墨西哥)
◎IMDb评分  6.9/10 from 4720 users
◎  
◎豆瓣评分 6.3/10 from 404 users
◎ 
◎片  长 128分钟
◎导  演 阿隆索·帕拉西奥斯 Alonso Ruizpalacios
◎编  剧 阿隆索·帕拉西奥斯 Alonso Ruizpalacios / 曼努埃尔·阿尔卡拉 Manuel Alcalá
◎主  演 盖尔·加西亚·贝纳尔 Gael García Bernal
       雷昂那多·奥提兹格尔斯 Leonardo Ortizgris
       阿尔佛莱德·卡斯特罗 Alfredo Castro
       西蒙·拉塞尔·比尔 Simon Russell Beale
       贝尔南多·沃拉斯科 Bernardo Velasco
       蕾蒂西亚·布雷戴斯 Leticia Brédice
       伊尔丝·萨拉斯 Ilse Salas
       莉萨·欧文 Lisa Owen

◎标  签 墨西哥 | 犯罪 | 2018 | 剧情 | 柏林电影节 | 真实事件 | 获奖 | 2019

◎简  介

  《博物馆》讲述的故事发生在1985年,一群罪犯为了嘲笑墨西哥人类学博物馆的安全指数,而去盗窃博物馆中的140多件前西班牙的文物。尽管电影取材于1985年发生的真实事件,电影与原始事件本身一样让人吃惊,它以精细的手法接近真相,又在每一个转折处进行重塑,并借鉴了多种电影类型 。

◎获奖情况

  第68届柏林国际电影节 ?(2018)
  金熊奖最佳影片(提名) 阿隆索·帕拉西奥斯
  银熊奖最佳剧本 阿隆索·帕拉西奥斯?/?曼努埃尔·阿尔卡拉
  
  第23届釜山国际电影节 ?(2018)
  未来景象奖(提名) 阿隆索·帕拉西奥斯
Video
ID                                       : 1
Format                                   : AVC
Format/Info                              : Advanced Video Codec
Format profile                           :
Format settings                          : CABAC / 5 Ref Frames
Format settings, CABAC                   : Yes
Format settings, Reference frames        : 5 frames
Codec ID                                 : V_MPEG4/ISO/AVC
Duration                                 : 2 h 6 min
Bit rate                                 : 15.6 Mb/s
Width                                    : 1 920 pixels
Height                                   : 802 pixels
Display aspect ratio                     : 2.40:1
Frame rate mode                          : Constant
Frame rate                               : 23.976 (24000/1001/189150) FPS
Color space                              : YUV
Chroma subsampling                       : 4:2:0
Bit depth                                : 8 bits
Scan type                                : Progressive
Bits/(Pixel*Frame)                       : 0.422
Stream size                              : 13.8 GiB (81%)
Writing library                          : x264 core 161 r3027 4121277
Encoding settings                        : cabac=1 / ref=5 / deblock=1:-3:-3 / analyse=0x3:0x133 / me=umh / subme=10 / psy=1 / psy_rd=1.00:0.15 / mixed_ref=1 / me_range=24 / chroma_me=1 / trellis=2 / 8x8dct=1 / cqm=0 / deadzone=21,11 / fast_pskip=1 / chroma_qp_offset=-3 / threads=18 / lookahead_threads=3 / sliced_threads=0 / nr=0 / decimate=1 / interlaced=0 / bluray_compat=0 / constrained_intra=0 / bframes=8 / b_pyramid=2 / b_adapt=2 / b_bias=0 / direct=3 / weightb=1 / open_gop=0 / weightp=2 / keyint=250 / keyint_min=23 / scenecut=40 / intra_refresh=0 / rc_lookahead=60 / rc=crf / mbtree=1 / crf=17.0 / qcomp=0.60 / qpmin=0 / qpmax=69 / qpstep=4 / ip_ratio=1.40 / aq=3:0.50
Language                                 : English
Default                                  : Yes
Forced                                   : No

Audio
ID                                       : 2
Format                                   : DTS XLL
Format/Info                              : Digital Theater Systems
Commercial name                          : DTS-HD Master Audio
Codec ID                                 : A_DTS
Duration                                 : 2 h 6 min
Bit rate mode                            : Variable
Bit rate                                 : 3 547 kb/s
Channel(s)                               : 6 channels
Channel layout                           : C L R Ls Rs LFE
Sampling rate                            : 48.0 kHz
Frame rate                               : 93.750 FPS (512 SPF)
Bit depth                                : 24 bits
Compression mode                         : Lossless
Stream size                              : 3.14 GiB (18%)
Language                                 : Spanish
Default                                  : Yes
Forced                                   : No

Text #1
ID                                       : 3
Format                                   : UTF-8
Codec ID                                 : S_TEXT/UTF8
Codec ID/Info                            : UTF-8 Plain Text
Duration                                 : 2 h 1 min
Bit rate                                 : 41 b/s
Count of elements                        : 1053
Stream size                              : 37.3 KiB (0%)
Title                                    : English
Language                                 : English
Default                                  : Yes
Forced                                   : Yes

Text #2
ID                                       : 4
Format                                   : PGS
Muxing mode                              : zlib
Codec ID                                 : S_HDMV/PGS
Codec ID/Info                            : Picture based subtitle format used on BDs/HD-DVDs
Duration                                 : 2 h 1 min
Bit rate                                 : 31.8 kb/s
Count of elements                        : 2106
Stream size                              : 27.7 MiB (0%)
Title                                    : English
Language                                 : English
Default                                  : No
Forced                                   : No

Menu
00:00:00.000                             : en:00:00:00.000
00:12:04.766                             : en:00:12:04.766
00:23:42.838                             : en:00:23:42.838
00:35:43.975                             : en:00:35:43.975
00:48:05.966                             : en:00:48:05.966
01:00:36.299                             : en:01:00:36.299
01:12:34.767                             : en:01:12:34.767
01:28:24.257                             : en:01:28:24.257
01:41:22.535                             : en:01:41:22.535
01:51:23.343                             : en:01:51:23.343
[/url]



                                                                                                                                                                                                        
                                                                                                                                                                                                                                                                                                                                                                                                                                                                                                                                                                                                                                                                                                                                                                                                                                                        
266c24670026e9844e808f47b02cafe7.zip (85.61 KB, 下载次数: 0)

回复

使用道具 举报

小黑屋|百度云资源论坛 |网站地图

本网站所有资源来自网络,如无意中侵犯了您的权益,请发邮件至 [email protected],立即清除相关链接

GMT+8, 2020-12-3 02:20 , Processed in 0.101376 second(s), 23 queries .

Powered by Discuz! X3.2

© 2001-2013 Comsenz Inc.

快速回复 返回顶部 返回列表