百度云资源论坛

 找回密码
 立即注册
搜索

美味/尸人诊所 Yummy.2019.1080p.BluRay.x264-iFT 9.83GB

[复制链接]
百度云电影 发表于 2020-11-21 15:02:49 | 显示全部楼层 |阅读模式
-->
帖子完整标题:美味/尸人诊所 Yummy.2019.1080p.BluRay.x264-iFT 9.83GB


[/url]

◎译  名 美味/尸人诊所(台)
◎片  名 Yummy
◎年  代 2019
◎产  地 比利时
◎类  别 喜剧 / 恐怖
◎语  言 荷兰语,英语
◎上映日期 2019-12-18(比利时)
◎IMDb评分  6/10 from 2625 users
◎  
◎豆瓣评分 6.1/10 from 3579 users
◎ 
◎片  长 96分钟
◎导  演 拉斯·达摩索 Lars Damoiseaux
◎编  剧 拉斯·达摩索 Lars Damoiseaux / 伊芙琳·哈根贝克 Eveline Hagenbeek / 汉内洛尔·文斯 Hannelore Vens
◎主  演 玛艾可·纽维尔 Maaike Neuville
       巴特·霍兰德斯 Bart Hollanders
       本杰明·莱蒙 Benjamin Ramon
       克拉拉·克莱曼斯 Clara Cleymans
       安妮可·克里斯蒂安斯 Annick Christiaens
       艾力克·高敦 Eric Godon
       约书亚·鲁宾 Joshua Rubin
       泰克·尼古拉 Taeke Nicola?
       汤姆·奥德纳尔特 Tom Audenaert
       努尔丁·法拉西 Noureddine Farihi
       迪米特里“维加斯”蒂瓦约 Dimitri 'Vegas' Thivaios
       路易丝·贝尔热斯 Louise Bergez
       斯蒂金·范·奥斯塔 Stijn Van Opstal
       伊莎贝尔·范·赫克 Isabelle van Hecke
       汉内洛尔·文斯 Hannelore Vens
       简·道恩斯 Jan Doense
       乔纳斯·戈瓦特斯 Jonas Govaerts
       埃里克·卡邦戈 Eric Kabongo

◎标  签 恐怖 | 惊悚 | 比利时 | 喜剧 | 黑色幽默 | 2019 | 动作 | 欧洲电影

◎简  介

  好吃是一场充满血液,暴力和乐趣的狂欢,一对年轻夫妇前往东欧一家破旧的整形外科医院。这位年轻女子想要减少乳房。她的母亲又来了一次改头换面。男友在一个废弃的病房里徘徊,偶然发现一名年轻女子,被塞住并绑在手术台上。她是实验性复兴疗法的结果。他释放了她,但没有意识到他只是造成了一种病毒爆发,该病毒将把医生,患者和他的婆婆变成嗜血的僵尸。
Video
ID                                       : 1
Format                                   : AVC
Format/Info                              : Advanced Video Codec
Format profile                           :
Format settings                          : CABAC / 5 Ref Frames
Format settings, CABAC                   : Yes
Format settings, Reference frames        : 5 frames
Codec ID                                 : V_MPEG4/ISO/AVC
Duration                                 : 1 h 29 min
Bit rate                                 : 14.8 Mb/s
Width                                    : 1 920 pixels
Height                                   : 804 pixels
Display aspect ratio                     : 2.40:1
Frame rate mode                          : Constant
Frame rate                               : 23.976 (24000/1001/189150) FPS
Color space                              : YUV
Chroma subsampling                       : 4:2:0
Bit depth                                : 8 bits
Scan type                                : Progressive
Bits/(Pixel*Frame)                       : 0.400
Stream size                              : 9.19 GiB (93%)
Writing library                          : x264 core 161 r3018+53 ~ Encoded by Mocunaman in Portugal
Encoding settings                        : cabac=1 / ref=5 / deblock=1:-3:-3 / analyse=0x3:0x133 / me=umh / subme=11 / psy=1 / fade_compensate=0.00 / psy_rd=1.00:0.00 / mixed_ref=1 / me_range=32 / chroma_me=1 / trellis=2 / 8x8dct=1 / cqm=0 / deadzone=21,11 / fast_pskip=0 / chroma_qp_offset=-2 / threads=25 / lookahead_threads=4 / sliced_threads=0 / nr=0 / decimate=0 / interlaced=0 / bluray_compat=0 / constrained_intra=0 / fgo=0 / bframes=8 / b_pyramid=2 / b_adapt=2 / b_bias=0 / direct=3 / weightb=1 / open_gop=0 / weightp=2 / keyint=250 / keyint_min=23 / scenecut=40 / intra_refresh=0 / rc=2pass / mbtree=0 / bitrate=14800 / ratetol=1.0 / qcomp=0.65 / qpmin=0:0:0 / qpmax=69:69:69 / qpstep=4 / cplxblur=20.0 / qblur=0.5 / ip_ratio=1.30 / pb_ratio=1.20 / aq=3:0.85 / aq-sensitivity=10.00 / aq-factor=1.00:1.00:1.00 / aq2=0 / aq3=0 / zones=0,1008,b=1.3/1152,4248,b=1.3/24846,29766,b=1.5/33870,36678,b=1.3/38310,109710,b=1.3/109880,118856,b=1.3
Language                                 : English
Default                                  : Yes
Forced                                   : No

Audio
ID                                       : 2
Format                                   : E-AC-3
Format/Info                              : Enhanced AC-3
Commercial name                          : Dolby Digital Plus
Codec ID                                 : A_EAC3
Duration                                 : 1 h 29 min
Bit rate mode                            : Constant
Bit rate                                 : 1 024 kb/s
Channel(s)                               : 6 channels
Channel layout                           : L R C LFE Ls Rs
Sampling rate                            : 48.0 kHz
Frame rate                               : 31.250 FPS (1536 SPF)
Compression mode                         : Lossy
Stream size                              : 653 MiB (6%)
Title                                    : E-AC3 DD+5.1 1024kbs
Language                                 : English
Service kind                             : Complete Main
Default                                  : Yes
Forced                                   : No

Text #1
ID                                       : 3
Format                                   : UTF-8
Codec ID                                 : S_TEXT/UTF8
Codec ID/Info                            : UTF-8 Plain Text
Duration                                 : 1 h 18 min
Bit rate                                 : 5 b/s
Count of elements                        : 99
Stream size                              : 2.94 KiB (0%)
Title                                    : Forced .srt
Language                                 : English
Default                                  : Yes
Forced                                   : Yes

Text #2
ID                                       : 4
Format                                   : UTF-8
Codec ID                                 : S_TEXT/UTF8
Codec ID/Info                            : UTF-8 Plain Text
Duration                                 : 1 h 24 min
Bit rate                                 : 29 b/s
Count of elements                        : 833
Stream size                              : 18.5 KiB (0%)
Title                                    : Full .srt
Language                                 : English
Default                                  : No
Forced                                   : No

Text #3
ID                                       : 5
Format                                   : UTF-8
Codec ID                                 : S_TEXT/UTF8
Codec ID/Info                            : UTF-8 Plain Text
Duration                                 : 1 h 27 min
Bit rate                                 : 35 b/s
Count of elements                        : 1248
Stream size                              : 23.0 KiB (0%)
Title                                    : SDH .srt
Language                                 : English
Default                                  : No
Forced                                   : No

Menu
00:00:00.000                             : :Morgue Madness
00:02:57.469                             : :Roadkill
00:07:27.947                             : :Klinika Krawczyk
00:17:16.994                             : :Are You Okay?
00:24:30.219                             : :Stairway to Hell
00:32:23.024                             : :Wake Up
00:41:31.781                             : :God is Punishing Us
00:48:55.724                             : :Mama Mia!
00:58:47.983                             : :The Only Way Out
01:05:51.990                             : :Risk of Contamination
01:14:15.076                             : :Making a Break
01:22:45.544                             : ookie?
[/url][/url][/url]



                                                                                                                                                                                                        
                                                                                                                                                                                                                                                                                                                                                                                                                                                                                                                                                                                                                                                                                                                                                                                                                                                        
1edda9da0e3b9e7c3e1c34eecb5527fe.zip (49.76 KB, 下载次数: 0)

回复

使用道具 举报

小黑屋|百度云资源论坛 |网站地图

本网站所有资源来自网络,如无意中侵犯了您的权益,请发邮件至 [email protected],立即清除相关链接

GMT+8, 2020-12-2 15:30 , Processed in 0.100351 second(s), 23 queries .

Powered by Discuz! X3.2

© 2001-2013 Comsenz Inc.

快速回复 返回顶部 返回列表