百度云资源论坛

 找回密码
 立即注册
搜索

白头山 Ashfall.2019.1080p.BluRay.x264-GiMCHi 17.66GB

[复制链接]
百度云电影 发表于 2020-11-21 15:02:49 | 显示全部楼层 |阅读模式
-->
帖子完整标题:白头山 Ashfall.2019.1080p.BluRay.x264-GiMCHi 17.66GB


[/url]

◎译  名 白头山/Ashfall/白头山:半岛浩劫(台)/白头山:火山浩劫(港)/长白山
◎片  名 ???
◎年  代 2019
◎产  地 韩国
◎类  别 动作 / 灾难
◎语  言 韩语,英语,汉语普通话
◎上映日期 2019-12-19(韩国)
◎IMDb评分  6.2/10 from 2654 users
◎  
◎豆瓣评分 6.4/10 from 30831 users
◎ 
◎片  长 128分钟
◎导  演 李海准 Hae-jun Lee / 金丙书 Byung-seo Kim
◎编  剧 李海准 Hae-jun Lee / 林俊亨 Chun-hyeong Lim
◎主  演 李秉宪 Byeng-hun Lee
       河正宇 Jung-woo Ha
       马东锡 Tong-Seok Ma
       全慧珍 Hye-jin Jeon
       裴秀智 Suzy Bae
       韩成天 Han Sung-chun
       张在熙 Jang Jae-hee
       金宰澈 Jae-cheol Kim
       全度妍 Do-yeon Jeon
       丹尼尔·乔伊·奥尔布赖特 Daniel Joey Albright
       金诗雅 Si-ah Kim
       韩长民 Chang-min Han
       尹亨国 Hyeong-gook Im
       朴智宏 Ji-hong Park

◎标  签 灾难 | 韩国 | 河正宇 | 韩国电影 | 马东锡 | 李秉宪 | 动作 | 2019

◎简  介

  李秉宪、河正宇、马东锡确认参演新片[长白山](???,暂译),目前正在调整影片细节问题,该片将由李海淮([金氏漂流记])、金丙书执导。影片讲述长白山火山爆发在即,各方人们抵御灾害的故事。李秉宪饰演阻止火山爆发的北韩人员,河正宇则化身南韩要员,和李秉宪角色共同合作抗争。马东锡饰演一名科学家。据悉影片将投入约200亿韩元,将在明年初开拍。

◎获奖情况

  第41届韩国电影青龙奖 ?(2020)
  技术奖(提名)
  
  第14届亚洲电影大奖 ?(2020)
  最佳视觉效果(提名)
  最佳音响(提名) 崔太永
  
  第56届韩国电影大钟奖 ?(2020)
  最佳男主角 李秉宪
  最佳音乐(提名)
  最佳技术奖
  最佳照明(提名)
Video
ID                                       : 1
Format                                   : AVC
Format/Info                              : Advanced Video Codec
Format profile                           :
Format settings                          : CABAC / 5 Ref Frames
Format settings, CABAC                   : Yes
Format settings, Reference frames        : 5 frames
Codec ID                                 : V_MPEG4/ISO/AVC
Duration                                 : 2 h 8 min
Bit rate                                 : 15.8 Mb/s
Width                                    : 1 920 pixels
Height                                   : 804 pixels
Display aspect ratio                     : 2.40:1
Frame rate mode                          : Constant
Frame rate                               : 23.976 (24000/1001/189150) FPS
Color space                              : YUV
Chroma subsampling                       : 4:2:0
Bit depth                                : 8 bits
Scan type                                : Progressive
Bits/(Pixel*Frame)                       : 0.426
Stream size                              : 14.1 GiB (80%)
Writing library                          : x264 core 161 r3027 4121277
Encoding settings                        : cabac=1 / ref=5 / deblock=1:-3:-3 / analyse=0x3:0x133 / me=umh / subme=9 / psy=1 / psy_rd=1.00:0.00 / mixed_ref=1 / me_range=16 / chroma_me=1 / trellis=2 / 8x8dct=1 / cqm=0 / deadzone=21,11 / fast_pskip=0 / chroma_qp_offset=-2 / threads=12 / lookahead_threads=1 / sliced_threads=0 / nr=0 / decimate=1 / interlaced=0 / bluray_compat=0 / constrained_intra=0 / bframes=3 / b_pyramid=2 / b_adapt=2 / b_bias=0 / direct=3 / weightb=1 / open_gop=0 / weightp=2 / keyint=250 / keyint_min=23 / scenecut=40 / intra_refresh=0 / rc=crf / mbtree=0 / crf=17.0 / qcomp=0.60 / qpmin=0 / qpmax=69 / qpstep=4 / ip_ratio=1.40 / pb_ratio=1.30 / aq=1:1.00
Language                                 : English
Default                                  : Yes
Forced                                   : No

Audio #1
ID                                       : 2
Format                                   : DTS XLL
Format/Info                              : Digital Theater Systems
Commercial name                          : DTS-HD Master Audio
Codec ID                                 : A_DTS
Duration                                 : 2 h 8 min
Bit rate mode                            : Variable
Bit rate                                 : 3 830 kb/s
Channel(s)                               : 6 channels
Channel layout                           : C L R Ls Rs LFE
Sampling rate                            : 48.0 kHz
Frame rate                               : 93.750 FPS (512 SPF)
Bit depth                                : 24 bits
Compression mode                         : Lossless
Stream size                              : 3.43 GiB (19%)
Title                                    : Korean
Language                                 : English
Default                                  : Yes
Forced                                   : No

Audio #2
ID                                       : 3
Format                                   : AAC LC
Format/Info                              : Advanced Audio Codec Low Complexity
Codec ID                                 : A_AAC-2
Duration                                 : 2 h 8 min
Bit rate                                 : 114 kb/s
Channel(s)                               : 2 channels
Channel layout                           : L R
Sampling rate                            : 48.0 kHz
Frame rate                               : 46.875 FPS (1024 SPF)
Compression mode                         : Lossy
Delay relative to video                  : 9 ms
Stream size                              : 104 MiB (1%)
Title                                    : Commentary
Language                                 : Korean
Default                                  : No
Forced                                   : No

Text #1
ID                                       : 4
Format                                   : PGS
Muxing mode                              : zlib
Codec ID                                 : S_HDMV/PGS
Codec ID/Info                            : Picture based subtitle format used on BDs/HD-DVDs
Duration                                 : 2 h 3 min
Bit rate                                 : 28.8 kb/s
Count of elements                        : 2718
Stream size                              : 25.4 MiB (0%)
Title                                    : English
Language                                 : English
Default                                  : Yes
Forced                                   : No

Text #2
ID                                       : 5
Format                                   : PGS
Muxing mode                              : zlib
Codec ID                                 : S_HDMV/PGS
Codec ID/Info                            : Picture based subtitle format used on BDs/HD-DVDs
Duration                                 : 2 h 3 min
Bit rate                                 : 27.5 kb/s
Count of elements                        : 2764
Stream size                              : 24.2 MiB (0%)
Title                                    : Korean
Language                                 : Korean
Default                                  : No
Forced                                   : No

Text #3
ID                                       : 6
Format                                   : PGS
Muxing mode                              : zlib
Codec ID                                 : S_HDMV/PGS
Codec ID/Info                            : Picture based subtitle format used on BDs/HD-DVDs
Duration                                 : 1 h 5 min
Bit rate                                 : 3 115 b/s
Count of elements                        : 186
Stream size                              : 1.45 MiB (0%)
Title                                    : Forced
Language                                 : Korean
Default                                  : No
Forced                                   : Yes

Menu
00:00:00.000                             : en:Chapter 01
00:08:37.100                             : en:Chapter 02
00:17:11.113                             : en:Chapter 03
00:25:06.046                             : en:Chapter 04
00:32:44.838                             : en:Chapter 05
00:43:44.080                             : en:Chapter 06
00:56:39.104                             : en:Chapter 07
01:02:36.753                             : en:Chapter 08
01:12:07.406                             : en:Chapter 09
01:18:38.672                             : en:Chapter 10
01:26:26.139                             : en:Chapter 11
01:35:06.826                             : en:Chapter 12
01:48:04.978                             : en:Chapter 13
01:53:16.581                             : en:Chapter 14
02:00:17.585                             : en:Chapter 15
[/url]



                                                                                                                                                                                                        
                                                                                                                                                                                                                                                                                                                                                                                                                                                                                                                                                                                                                                                                                                                                                                                                                                                        
23f704adb2de9b4c945f5712e212bde7.zip (88.98 KB, 下载次数: 0)

回复

使用道具 举报

小黑屋|百度云资源论坛 |网站地图

本网站所有资源来自网络,如无意中侵犯了您的权益,请发邮件至 [email protected],立即清除相关链接

GMT+8, 2020-12-3 02:17 , Processed in 0.116155 second(s), 23 queries .

Powered by Discuz! X3.2

© 2001-2013 Comsenz Inc.

快速回复 返回顶部 返回列表