百度云资源论坛

 找回密码
 立即注册
搜索

驯鹰者的崛起 The.Rising.Hawk.2019.1080p.BluRay.x264.DTS-MT 14.93GB

[复制链接]
百度云资源 发表于 2020-11-21 15:02:49 | 显示全部楼层 |阅读模式
-->
帖子完整标题:驯鹰者的崛起 The.Rising.Hawk.2019.1080p.BluRay.x264.DTS-MT 14.93GB


[/url]

◎译  名 驯鹰者的崛起/Zahar Berkut/Захар Беркут/上升的鹰
◎片  名 The Rising Hawk
◎年  代 2019
◎产  地 乌克兰,美国
◎类  别 剧情 / 动作 / 历史
◎语  言 乌克兰语
◎上映日期 2019-10-10(乌克兰)
◎IMDb评分  5.9/10 from 2250 users
◎  
◎豆瓣评分 6.2/10 from 134 users
◎ 
◎片  长 135分钟
◎导  演 阿希姆特·塞塔布拉耶夫 Akhtem Seitablaev / 约翰·韦恩 John Wynn
◎编  剧 里奇·罗纳特 Rich Ronat / 奥列格·马拉姆兹 Yaroslav Voytseshek
◎主  演 罗伯特·帕特里克 Robert Patrick
       帕皮·德雷顿 Poppy Drayton
       汤米·弗拉纳根 Tommy Flanagan
       艾莉森·杜迪 Alison Doody
       亚历克斯·马克尼科尔 Alex MacNicoll
       洛奇.迈尔斯 Rocky Myers
       奥利弗·特雷韦纳 Oliver Trevena
       阿琳娜·科瓦连科 Alina Kovalenko

◎标  签 蒙古 | 战争 | 乌克兰 | 历史 | 中世纪 | 2019 | 美国 | 青春

◎简  介

  1241年,成吉思汗的儿子们率领的蒙古大军西征,所到之处生灵涂炭。当他们抵达到达喀尔巴阡山脉时,当地猎人贝尔库特兄弟秘密进入营地蒙古并释放了被挟持人质。愤怒的蒙古将军决定采取报复措施,摧毁喀尔巴阡当地的居民定居点。当地人中的一个叛徒告诉蒙古人山里的秘密通道,但贝尔库特兄弟领导的一小群山地猎人有自己的计划来阻止蒙古人的袭击。根据伊凡·法兰科的中篇小说《扎克哈尔·伯库特》改编
Video
ID                                       : 1
Format                                   : AVC
Format/Info                              : Advanced Video Codec
Format profile                           :
Format settings                          : CABAC / 5 Ref Frames
Format settings, CABAC                   : Yes
Format settings, Reference frames        : 5 frames
Codec ID                                 : V_MPEG4/ISO/AVC
Duration                                 : 2 h 5 min
Bit rate                                 : 15.6 Mb/s
Width                                    : 1 920 pixels
Height                                   : 806 pixels
Display aspect ratio                     : 2.40:1
Frame rate mode                          : Constant
Frame rate                               : 23.976 (24000/1001/189150) FPS
Color space                              : YUV
Chroma subsampling                       : 4:2:0
Bit depth                                : 8 bits
Scan type                                : Progressive
Bits/(Pixel*Frame)                       : 0.419
Stream size                              : 13.6 GiB (91%)
Writing library                          : x264 core 157 r2938 2b00a84  Mod
Encoding settings                        : cabac=1 / ref=5 / deblock=1:-3:-3 / analyse=0x3:0x133 / me=umh / subme=10 / psy=1 / psy_rd=1.05:0.00 / mixed_ref=1 / me_range=32 / chroma_me=1 / trellis=2 / 8x8dct=1 / cqm=0 / deadzone=21,11 / fast_pskip=0 / chroma_qp_offset=-2 / threads=12 / lookahead_threads=2 / sliced_threads=0 / nr=0 / decimate=0 / interlaced=0 / bluray_compat=0 / constrained_intra=0 / bframes=8 / b_pyramid=2 / b_adapt=2 / b_bias=0 / direct=3 / weightb=1 / open_gop=0 / weightp=2 / keyint=250 / keyint_min=24 / scenecut=40 / intra_refresh=0 / rc_lookahead=250 / rc=crf / mbtree=0 / crf=16.8 / qcomp=0.60 / qpmin=0 / qpmax=69 / qpstep=4 / vbv_maxrate=62500 / vbv_bufsize=78125 / crf_max=0.0 / nal_hrd=none / filler=0 / ip_ratio=1.30 / pb_ratio=1.20 / aq=3:0.80
Language                                 : English
Default                                  : Yes
Forced                                   : No
Color range                              : Limited
Color primaries                          : BT.709
Matrix coefficients                      : BT.709

Audio
ID                                       : 2
Format                                   : DTS
Format/Info                              : Digital Theater Systems
Codec ID                                 : A_DTS
Duration                                 : 2 h 5 min
Bit rate mode                            : Constant
Bit rate                                 : 1 509 kb/s
Channel(s)                               : 6 channels
Channel layout                           : C L R Ls Rs LFE
Sampling rate                            : 48.0 kHz
Frame rate                               : 93.750 FPS (512 SPF)
Bit depth                                : 24 bits
Compression mode                         : Lossy
Stream size                              : 1.32 GiB (9%)
Language                                 : English
Default                                  : Yes
Forced                                   : No

Text
ID                                       : 3
Format                                   : UTF-8
Codec ID                                 : S_TEXT/UTF8
Codec ID/Info                            : UTF-8 Plain Text
Duration                                 : 1 h 58 min
Bit rate                                 : 22 b/s
Count of elements                        : 838
Stream size                              : 19.3 KiB (0%)
Title                                    : SRT
Language                                 : English
Default                                  : Yes
Forced                                   : No

Menu
00:00:00.000                             : en:Chapter 01
00:09:18.433                             : en:Chapter 02
00:18:52.381                             : en:Chapter 03
00:30:20.193                             : en:Chapter 04
00:43:19.889                             : en:Chapter 05
00:51:22.955                             : en:Chapter 06
01:01:44.993                             : en:Chapter 07
01:09:38.966                             : en:Chapter 08
01:21:16.914                             : en:Chapter 09
01:32:18.950                             : en:Chapter 10
01:43:20.569                             : en:Chapter 11
01:59:37.545                             : en:Chapter 12
[/url][/url][/url]



                                                                                                                                                                                                        
                                                                                                                                                                                                                                                                                                                                                                                                                                                                                                                                                                                                                                                                                                                                                                                                                                                        
c23f5f402b71dd72537b34d7e5d90283.zip (75.27 KB, 下载次数: 0)

回复

使用道具 举报

小黑屋|百度云资源论坛 |网站地图

本网站所有资源来自网络,如无意中侵犯了您的权益,请发邮件至 [email protected],立即清除相关链接

GMT+8, 2020-12-3 03:24 , Processed in 0.128083 second(s), 23 queries .

Powered by Discuz! X3.2

© 2001-2013 Comsenz Inc.

快速回复 返回顶部 返回列表