百度云资源论坛

 找回密码
 立即注册
搜索

浴室墙上的字 Words.on.Bathroom.Walls.2020.1080p.BluRay.x264.DTS-HD.MA.5...

[复制链接]
百度云电影 发表于 2020-11-21 15:02:49 | 显示全部楼层 |阅读模式
-->
帖子完整标题:浴室墙上的字 Words.on.Bathroom.Walls.2020.1080p.BluRay.x264.DTS-HD.MA.5.1-MT 11.57GB


[/url]

◎译  名 浴室墙上的字
◎片  名 Words on Bathroom Walls
◎年  代 2020
◎产  地 美国
◎类  别 剧情
◎语  言 英语
◎上映日期 2020-08-21(美国)
◎IMDb评分  6.8/10 from 860 users
◎  
◎豆瓣评分 /10 from 0 users
◎ 
◎片  长 111分钟
◎导  演 托尔·弗罗伊登塔尔 Thor Freudenthal
◎主  演 查理·普拉默 Charlie Plummer
       莫莉·帕克 Molly Parker
       泰勒·拉塞尔 Taylor Russell
       沃尔顿·戈金斯 Walton Goggins
       安娜索菲亚·罗伯 AnnaSophia Robb
       安迪·加西亚 Andy Garcia
       戴文·博斯蒂克 Devon Bostick
       贝丝·格兰特 Beth Grant
       洛博·塞巴斯蒂安 Lobo Sebastian
       德鲁·谢伊德 Drew Scheid
       杰拉德·班肯斯 Jared Bankens

◎标  签 烟鬼组合 | 美国 | 剧情 | 2020 | 美国电影 | 电影 | 改编 | 安娜索菲亚罗伯

◎简  介

  讲述男孩亚当被诊断患有精神分裂症,他去到一所新学校就读,开始服用新药,一开始效果看起来很不错,不过很快真相大白,他被迫做出一些艰难的决定。罗素饰演亚当的梦中情人玛雅,罗伯饰演丽贝卡,是亚当幻觉中的主要角色,作为他不能表达的情绪的管道。Nick Naveda编写剧本,基于Julia Walton所著同名小说,Mickey Liddell&Pete Shilaimon(《第一夫人》《类人猿行动》)制片。
Video
ID                                       : 1
Format                                   : AVC
Format/Info                              : Advanced Video Codec
Format profile                           :
Format settings                          : CABAC / 5 Ref Frames
Format settings, CABAC                   : Yes
Format settings, Reference frames        : 5 frames
Codec ID                                 : V_MPEG4/ISO/AVC
Duration                                 : 1 h 50 min
Bit rate                                 : 11.7 Mb/s
Width                                    : 1 920 pixels
Height                                   : 804 pixels
Display aspect ratio                     : 2.40:1
Frame rate mode                          : Constant
Frame rate                               : 23.976 (24000/1001/189150) FPS
Color space                              : YUV
Chroma subsampling                       : 4:2:0
Bit depth                                : 8 bits
Scan type                                : Progressive
Bits/(Pixel*Frame)                       : 0.316
Stream size                              : 9.03 GiB (78%)
Writing library                          : x264 core 157 r2938 2b00a84  Mod
Encoding settings                        : cabac=1 / ref=5 / deblock=1:-3:-3 / analyse=0x3:0x133 / me=umh / subme=10 / psy=1 / psy_rd=1.05:0.00 / mixed_ref=1 / me_range=32 / chroma_me=1 / trellis=2 / 8x8dct=1 / cqm=0 / deadzone=21,11 / fast_pskip=0 / chroma_qp_offset=-2 / threads=12 / lookahead_threads=2 / sliced_threads=0 / nr=0 / decimate=0 / interlaced=0 / bluray_compat=0 / constrained_intra=0 / bframes=8 / b_pyramid=2 / b_adapt=2 / b_bias=0 / direct=3 / weightb=1 / open_gop=0 / weightp=2 / keyint=250 / keyint_min=24 / scenecut=40 / intra_refresh=0 / rc_lookahead=250 / rc=crf / mbtree=0 / crf=16.8 / qcomp=0.60 / qpmin=0 / qpmax=69 / qpstep=4 / vbv_maxrate=62500 / vbv_bufsize=78125 / crf_max=0.0 / nal_hrd=none / filler=0 / ip_ratio=1.30 / pb_ratio=1.20 / aq=3:0.80
Language                                 : English
Default                                  : Yes
Forced                                   : No
Color range                              : Limited
Color primaries                          : BT.709
Matrix coefficients                      : BT.709

Audio
ID                                       : 2
Format                                   : DTS XLL
Format/Info                              : Digital Theater Systems
Commercial name                          : DTS-HD Master Audio
Codec ID                                 : A_DTS
Duration                                 : 1 h 50 min
Bit rate mode                            : Variable
Bit rate                                 : 3 253 kb/s
Channel(s)                               : 6 channels
Channel layout                           : C L R Ls Rs LFE
Sampling rate                            : 48.0 kHz
Frame rate                               : 93.750 FPS (512 SPF)
Bit depth                                : 24 bits
Compression mode                         : Lossless
Stream size                              : 2.51 GiB (22%)
Language                                 : English
Default                                  : Yes
Forced                                   : No

Text #1
ID                                       : 3
Format                                   : UTF-8
Codec ID                                 : S_TEXT/UTF8
Codec ID/Info                            : UTF-8 Plain Text
Duration                                 : 1 h 42 min
Bit rate                                 : 69 b/s
Count of elements                        : 1851
Stream size                              : 52.3 KiB (0%)
Title                                    : SRT
Language                                 : English
Default                                  : Yes
Forced                                   : No

Text #2
ID                                       : 4
Format                                   : PGS
Muxing mode                              : zlib
Codec ID                                 : S_HDMV/PGS
Codec ID/Info                            : Picture based subtitle format used on BDs/HD-DVDs
Duration                                 : 1 h 42 min
Bit rate                                 : 51.4 kb/s
Count of elements                        : 3978
Stream size                              : 37.8 MiB (0%)
Language                                 : English
Default                                  : No
Forced                                   : No

Menu
00:00:00.000                             : en:Chapter 01
00:06:31.016                             : en:Chapter 02
00:16:49.008                             : en:Chapter 03
00:22:59.378                             : en:Chapter 04
00:29:52.791                             : en:Chapter 05
00:36:10.168                             : en:Chapter 06
00:43:07.585                             : en:Chapter 07
00:51:50.107                             : en:Chapter 08
00:58:41.518                             : en:Chapter 09
01:05:11.533                             : en:Chapter 10
01:09:41.803                             : en:Chapter 11
01:14:14.075                             : en:Chapter 12
01:19:40.776                             : en:Chapter 13
01:31:19.099                             : en:Chapter 14
01:36:31.411                             : en:Chapter 15
01:44:19.253                             : en:Chapter 16
[/url][/url][/url]



                                                                                                                                                                                                        
                                                                                                                                                                                                                                                                                                                                                                                                                                                                                                                                                                                                                                                                                                                                                                                                                                                        
1a534bd5f8c545800fbea9df59da8201.zip (58.54 KB, 下载次数: 0)

回复

使用道具 举报

小黑屋|百度云资源论坛 |网站地图

本网站所有资源来自网络,如无意中侵犯了您的权益,请发邮件至 [email protected],立即清除相关链接

GMT+8, 2020-12-2 13:32 , Processed in 0.100577 second(s), 23 queries .

Powered by Discuz! X3.2

© 2001-2013 Comsenz Inc.

快速回复 返回顶部 返回列表