百度云资源论坛

 找回密码
 立即注册
搜索

遗落家庭/家灵 Relic.2020.1080p.BluRay.x264-PiGNUS 5.50GB

[复制链接]
百度云电影 发表于 2020-11-21 15:02:49 | 显示全部楼层 |阅读模式
-->
帖子完整标题:遗落家庭/家灵 Relic.2020.1080p.BluRay.x264-PiGNUS 5.50GB


[/url]

◎译  名 遗落家庭/家灵(台)
◎片  名 Relic
◎年  代 2020
◎产  地 澳大利亚,美国
◎类  别 恐怖
◎语  言 英语
◎上映日期 2020-01-25(圣丹斯电影节) / 2020-07-10(美国)
◎IMDb评分  6/10 from 12874 users
◎  
◎豆瓣评分 5.2/10 from 2804 users
◎ 
◎片  长 89分钟
◎导  演 娜塔莉·埃丽卡·詹姆斯 Natalie Erika James
◎编  剧 娜塔莉·埃丽卡·詹姆斯 Natalie Erika James / 克里斯蒂安·怀特 Christian White
◎主  演 艾米莉·莫迪默 Emily Mortimer
       贝拉·希思科特 Bella Heathcote
       罗宾·奈文 Robyn Nevin
       克里斯·邦顿 Chris Bunton
       约翰·布朗宁 John Browning

◎标  签 恐怖 | 惊悚 | 2020 | 澳大利亚 | 恐怖片 | 美国 | 剧情 | 澳大利亚电影

◎简  介

  艾德娜(罗苹·纳文 Robyn Nevin 饰)虽然年事已高但一直过着独居生活。一天,她的女儿凯(艾米莉·莫迪默 Emily Mortimer 饰)和孙女山姆(贝拉·希思科特 Bella Heathcote 饰)接到了警方的来电,告知了她们艾德娜失踪的消息。震惊之余,两人急急忙忙的赶回了祖宅。
  
  搜索行动刚刚展开没多久,艾德娜竟然自己又出现了。对于失踪的这几天的经历,艾德娜只口不提,大家也只能够以她换上了阿兹海默症来解释这一切。艾德娜的回归让大家都松了一口气,但谁知道悲剧才刚刚开始,回家后的艾德娜一改往日的心性,就仿佛变了一个人一样,有时候她的举动甚至让凯和山姆感到恐惧。

◎获奖情况

  第30届哥谭独立电影奖 ?(2020)
  最佳影片(提名)
Video
ID                                       : 1
Format                                   : AVC
Format/Info                              : Advanced Video Codec
Format profile                           :
Format settings                          : CABAC / 5 Ref Frames
Format settings, CABAC                   : Yes
Format settings, Reference frames        : 5 frames
Codec ID                                 : V_MPEG4/ISO/AVC
Duration                                 : 1 h 29 min
Bit rate                                 : 5 730 kb/s
Width                                    : 1 920 pixels
Height                                   : 802 pixels
Display aspect ratio                     : 2.40:1
Frame rate mode                          : Constant
Frame rate                               : 23.976 (24000/1001/189150) FPS
Color space                              : YUV
Chroma subsampling                       : 4:2:0
Bit depth                                : 8 bits
Scan type                                : Progressive
Bits/(Pixel*Frame)                       : 0.155
Stream size                              : 3.59 GiB (65%)
Writing library                          : x264 core 161 r3027 4121277
Encoding settings                        : cabac=1 / ref=5 / deblock=1:-3:-3 / analyse=0x3:0x133 / me=umh / subme=9 / psy=1 / psy_rd=1.00:0.00 / mixed_ref=1 / me_range=16 / chroma_me=1 / trellis=2 / 8x8dct=1 / cqm=0 / deadzone=21,11 / fast_pskip=1 / chroma_qp_offset=-2 / threads=25 / lookahead_threads=2 / sliced_threads=0 / nr=0 / decimate=1 / interlaced=0 / bluray_compat=0 / constrained_intra=0 / bframes=3 / b_pyramid=2 / b_adapt=2 / b_bias=0 / direct=3 / weightb=1 / open_gop=0 / weightp=2 / keyint=250 / keyint_min=23 / scenecut=40 / intra_refresh=0 / rc_lookahead=60 / rc=crf / mbtree=1 / crf=15.5 / qcomp=0.60 / qpmin=0 / qpmax=69 / qpstep=4 / ip_ratio=1.40 / aq=1:1.00
Language                                 : English
Default                                  : Yes
Forced                                   : No

Audio
ID                                       : 2
Format                                   : DTS XLL
Format/Info                              : Digital Theater Systems
Commercial name                          : DTS-HD Master Audio
Codec ID                                 : A_DTS
Duration                                 : 1 h 29 min
Bit rate mode                            : Variable
Bit rate                                 : 3 042 kb/s
Channel(s)                               : 6 channels
Channel layout                           : C L R Ls Rs LFE
Sampling rate                            : 48.0 kHz
Frame rate                               : 93.750 FPS (512 SPF)
Bit depth                                : 24 bits
Compression mode                         : Lossless
Stream size                              : 1.91 GiB (35%)
Language                                 : English
Default                                  : Yes
Forced                                   : No

Text #1
ID                                       : 3
Format                                   : PGS
Muxing mode                              : zlib
Codec ID                                 : S_HDMV/PGS
Codec ID/Info                            : Picture based subtitle format used on BDs/HD-DVDs
Duration                                 : 1 h 24 min
Bit rate                                 : 14.2 kb/s
Count of elements                        : 1036
Stream size                              : 8.61 MiB (0%)
Title                                    : English SDH
Language                                 : English
Default                                  : No
Forced                                   : No

Text #2
ID                                       : 4
Format                                   : PGS
Muxing mode                              : zlib
Codec ID                                 : S_HDMV/PGS
Codec ID/Info                            : Picture based subtitle format used on BDs/HD-DVDs
Duration                                 : 1 h 19 min
Bit rate                                 : 14.0 kb/s
Count of elements                        : 944
Stream size                              : 8.01 MiB (0%)
Title                                    : Spanish
Language                                 : Spanish
Default                                  : No
Forced                                   : No

Menu
00:00:00.000                             : en:Chapter 01
00:07:11.264                             : en:Chapter 02
00:15:57.456                             : en:Chapter 03
00:24:20.834                             : en:Chapter 04
00:32:20.814                             : en:Chapter 05
00:40:54.786                             : en:Chapter 06
00:48:57.309                             : en:Chapter 07
00:53:51.979                             : en:Chapter 08
00:58:34.302                             : en:Chapter 09
01:07:04.270                             : en:Chapter 10
01:12:59.125                             : en:Chapter 11
01:18:17.860                             : en:Chapter 12
01:29:38.540                             : en:Chapter 13
[/url]



                                                                                                                                                                                                        
                                                                                                                                                                                                                                                                                                                                                                                                                                                                                                                                                                                                                                                                                                                                                                                                                                                        
09fab37a5ab7aacf4145c61a6111564a.zip (28.2 KB, 下载次数: 0)

回复

使用道具 举报

小黑屋|百度云资源论坛 |网站地图

本网站所有资源来自网络,如无意中侵犯了您的权益,请发邮件至 [email protected],立即清除相关链接

GMT+8, 2020-12-2 14:54 , Processed in 0.108713 second(s), 23 queries .

Powered by Discuz! X3.2

© 2001-2013 Comsenz Inc.

快速回复 返回顶部 返回列表