百度云资源论坛

 找回密码
 立即注册
搜索

斯科特与席德 Scott.and.Sid.2018.720p.BluRay.x264-ViRGO 5.28GB

[复制链接]
-->
帖子完整标题:斯科特与席德 Scott.and.Sid.2018.720p.BluRay.x264-ViRGO 5.28GB


[/url]

◎译  名 斯科特与席德
◎片  名 Scott and Sid
◎年  代 2018
◎产  地 英国
◎类  别 剧情
◎语  言 英语
◎上映日期 2018-03-09(英国)
◎IMDb评分  6.9/10 from 1281 users
◎  
◎豆瓣评分 /10 from 0 users
◎ 
◎片  长 100分钟
◎主  演 理查德·哈泽赫斯特·梅森 Richard Hazlehurst Mason

◎简  介

  From their first encounter as teenagers in high school, Scott and Sid seem unlikely friends. Scott is a shambolic dreamer, intent on carving out his own path in life and holding up a metaphorical middle finger to anyone who tries to stop him. He is a quintessential troubled teen: on his fifth high school by the age of fifteen, alienated from his peers, crippled by recurring nightmares and disliked by his own foster parents. Sid, on the other hand, wants nothing more than to be liked. An unconfident, awkward recluse through circumstance, Sid's impoverished and dysfunctional background leave him no time for friends and no money for hobbies. And then Scott arrives in town, and Sid's whole world is turned upside down, as the pair embark on a journey of Dreamchasing, the personal code that they agree to live by. Through persistence and trust, sharing secrets and testing their faith in each other, Scott and Sid become embroiled in an adventure that leads them through doubts, deprivation and...
Video
ID                                       : 1
Format                                   : AVC
Format/Info                              : Advanced Video Codec
Format profile                           :
Format settings                          : CABAC / 8 Ref Frames
Format settings, CABAC                   : Yes
Format settings, Reference frames        : 8 frames
Codec ID                                 : V_MPEG4/ISO/AVC
Duration                                 : 1 h 39 min
Bit rate                                 : 6 919 kb/s
Width                                    : 1 280 pixels
Height                                   : 574 pixels
Display aspect ratio                     : 2.25:1
Frame rate mode                          : Constant
Frame rate                               : 24.000 FPS
Color space                              : YUV
Chroma subsampling                       : 4:2:0
Bit depth                                : 8 bits
Scan type                                : Progressive
Bits/(Pixel*Frame)                       : 0.392
Stream size                              : 4.83 GiB (92%)
Writing library                          : x264 core 161 r3027 4121277
Encoding settings                        : cabac=1 / ref=8 / deblock=1:0:0 / analyse=0x3:0x133 / me=umh / subme=9 / psy=1 / psy_rd=1.00:0.00 / mixed_ref=1 / me_range=16 / chroma_me=1 / trellis=2 / 8x8dct=1 / cqm=0 / deadzone=21,11 / fast_pskip=1 / chroma_qp_offset=-2 / threads=12 / lookahead_threads=1 / sliced_threads=0 / nr=0 / decimate=1 / interlaced=0 / bluray_compat=0 / constrained_intra=0 / bframes=3 / b_pyramid=2 / b_adapt=2 / b_bias=0 / direct=3 / weightb=1 / open_gop=0 / weightp=2 / keyint=240 / keyint_min=24 / scenecut=40 / intra_refresh=0 / rc_lookahead=60 / rc=crf / mbtree=1 / crf=11.0 / qcomp=0.60 / qpmin=0 / qpmax=69 / qpstep=4 / vbv_maxrate=62500 / vbv_bufsize=78125 / crf_max=0.0 / nal_hrd=none / filler=0 / ip_ratio=1.40 / aq=1:1.00
Language                                 : English
Default                                  : Yes
Forced                                   : No

Audio
ID                                       : 2
Format                                   : AC-3
Format/Info                              : Audio Coding 3
Commercial name                          : Dolby Digital
Codec ID                                 : A_AC3
Duration                                 : 1 h 39 min
Bit rate mode                            : Constant
Bit rate                                 : 640 kb/s
Channel(s)                               : 6 channels
Channel layout                           : L R C LFE Ls Rs
Sampling rate                            : 48.0 kHz
Frame rate                               : 31.250 FPS (1536 SPF)
Compression mode                         : Lossy
Stream size                              : 457 MiB (8%)
Language                                 : English
Service kind                             : Complete Main
Default                                  : Yes
Forced                                   : No

Menu
00:00:00.000                             : en:Chapter 01
00:08:56.750                             : en:Chapter 02
00:15:51.333                             : en:Chapter 03
00:24:49.958                             : en:Chapter 04
00:31:45.833                             : en:Chapter 05
00:39:46.083                             : en:Chapter 06
00:49:03.000                             : en:Chapter 07
00:55:53.208                             : en:Chapter 08
01:04:19.583                             : en:Chapter 09
01:12:06.042                             : en:Chapter 10
01:20:51.708                             : en:Chapter 11
01:26:47.792                             : en:Chapter 12
[/url]



                                                                                                                                                                                                        
                                                                                                                                                                                                                                                                                                                                                                                                                                                                                                                                                                                                                                                                                                                                                                                                                                                        
7c1d214bba642e1beb9dcdc4801a738e.zip (27.05 KB, 下载次数: 0)

回复

使用道具 举报

小黑屋|百度云资源论坛 |网站地图

本网站所有资源来自网络,如无意中侵犯了您的权益,请发邮件至 [email protected],立即清除相关链接

GMT+8, 2020-11-27 08:43 , Processed in 0.101446 second(s), 23 queries .

Powered by Discuz! X3.2

© 2001-2013 Comsenz Inc.

快速回复 返回顶部 返回列表