百度云资源论坛

 找回密码
 立即注册
搜索

少林木人巷 Shaolin.Wooden.Men.1976.720p.BluRay.x264-USURY 5.83GB

[复制链接]
-->
帖子完整标题:少林木人巷 Shaolin.Wooden.Men.1976.720p.BluRay.x264-USURY 5.83GB


[/url]

◎译  名 Shaolin Chamber of Death/Shaolin Wooden Men
◎片  名 少林木人巷
◎年  代 1976
◎产  地 中国香港
◎类  别 动作
◎语  言 汉语普通话
◎上映日期 1976-11-10
◎IMDb评分  6.5/10 from 2015 users
◎  
◎豆瓣评分 6.5/10 from 2868 users
◎ 
◎片  长 USA: 98 分钟
◎导  演 陈志华 Chi-Hwa Chen
◎主  演 成龙 Jackie Chan
       黄正利 Jang Lee Hwang
       元彪 Biao Yuen
       苗天 Tien Miao
       龙君儿 Doris Lung Chun-Erh
       张冰玉 Ping-Yu Chang
       李笑丛 Hsiao Chung Li
       何刚 Kang Ho

◎标  签 成龙 | 动作 | 香港 | 香港电影 | 武侠 | 1976 | 喜剧 | 电影

◎简  介

  少林哑徒弟(成龙 饰)为了报杀父之仇而学武,从挑水砍柴做起,苦熬内功基础,打出木人巷学成武功的情形时时出现在他的梦中,父亲被害的惨状和客居少林的五枚师太的开解令他在疲乏时咬紧牙关坚持。哑徒弟在少林禁地发现了被锁住的老怪人法愚,法愚不似少林僧人,但有感于哑徒弟的照顾,法愚指点尚不具备学习少林武术资格的哑徒弟武功,期间哑徒弟师兄闯入木人巷却实力不济铩羽而归。五枚师太见独自温习武功的哑徒弟出招狠辣,随传授蛇翼八步调理其心性,经法愚调教,哑徒弟成功打出木人巷,得以学成下山,法愚令其携带信物联络江湖帮派,引发江湖搏杀,而哑徒弟又发现了法愚的真实身份……
Video
ID                                       : 1
Format                                   : AVC
Format/Info                              : Advanced Video Codec
Format profile                           :
Format settings                          : CABAC / 12 Ref Frames
Format settings, CABAC                   : Yes
Format settings, Reference frames        : 12 frames
Codec ID                                 : V_MPEG4/ISO/AVC
Duration                                 : 1 h 47 min
Bit rate                                 : 6 437 kb/s
Width                                    : 1 280 pixels
Height                                   : 536 pixels
Display aspect ratio                     : 2.40:1
Frame rate mode                          : Constant
Frame rate                               : 23.976 (24000/1001/189150) FPS
Color space                              : YUV
Chroma subsampling                       : 4:2:0
Bit depth                                : 8 bits
Scan type                                : Progressive
Bits/(Pixel*Frame)                       : 0.391
Stream size                              : 4.84 GiB (83%)
Writing library                          : x264 core 161 r3027 4121277
Encoding settings                        : cabac=1 / ref=12 / deblock=1:-3:-3 / analyse=0x3:0x133 / me=umh / subme=10 / psy=1 / psy_rd=1.00:0.15 / mixed_ref=1 / me_range=24 / chroma_me=1 / trellis=2 / 8x8dct=1 / cqm=0 / deadzone=21,11 / fast_pskip=1 / chroma_qp_offset=-3 / threads=17 / lookahead_threads=2 / sliced_threads=0 / nr=0 / decimate=1 / interlaced=0 / bluray_compat=0 / constrained_intra=0 / bframes=8 / b_pyramid=2 / b_adapt=2 / b_bias=0 / direct=3 / weightb=1 / open_gop=0 / weightp=2 / keyint=250 / keyint_min=23 / scenecut=40 / intra_refresh=0 / rc_lookahead=60 / rc=crf / mbtree=1 / crf=17.0 / qcomp=0.60 / qpmin=0 / qpmax=69 / qpstep=4 / ip_ratio=1.40 / aq=3:0.50
Language                                 : English
Default                                  : Yes
Forced                                   : No
Color range                              : Limited
Matrix coefficients                      : BT.709

Audio #1
ID                                       : 2
Format                                   : FLAC
Format/Info                              : Free Lossless Audio Codec
Codec ID                                 : A_FLAC
Duration                                 : 1 h 47 min
Bit rate mode                            : Variable
Bit rate                                 : 286 kb/s
Channel(s)                               : 2 channels
Channel layout                           : L R
Sampling rate                            : 48.0 kHz
Frame rate                               : 11.719 FPS (4096 SPF)
Bit depth                                : 16 bits
Compression mode                         : Lossless
Stream size                              : 220 MiB (4%)
Title                                    : Mandarin
Writing library                          : libFLAC 1.2.1 (UTC 2007-09-17)
Language                                 : Chinese
Default                                  : Yes
Forced                                   : No

Audio #2
ID                                       : 3
Format                                   : FLAC
Format/Info                              : Free Lossless Audio Codec
Codec ID                                 : A_FLAC
Duration                                 : 1 h 47 min
Bit rate mode                            : Variable
Bit rate                                 : 339 kb/s
Channel(s)                               : 2 channels
Channel layout                           : L R
Sampling rate                            : 48.0 kHz
Frame rate                               : 11.719 FPS (4096 SPF)
Bit depth                                : 16 bits
Compression mode                         : Lossless
Stream size                              : 261 MiB (4%)
Title                                    : English
Writing library                          : libFLAC 1.2.1 (UTC 2007-09-17)
Language                                 : English
Default                                  : No
Forced                                   : No

Audio #3
ID                                       : 4
Format                                   : FLAC
Format/Info                              : Free Lossless Audio Codec
Codec ID                                 : A_FLAC
Duration                                 : 1 h 47 min
Bit rate mode                            : Variable
Bit rate                                 : 234 kb/s
Channel(s)                               : 2 channels
Channel layout                           : L R
Sampling rate                            : 48.0 kHz
Frame rate                               : 11.719 FPS (4096 SPF)
Bit depth                                : 16 bits
Compression mode                         : Lossless
Stream size                              : 180 MiB (3%)
Title                                    : Cantonese
Writing library                          : libFLAC 1.2.1 (UTC 2007-09-17)
Language                                 : Chinese
Default                                  : No
Forced                                   : No

Audio #4
ID                                       : 5
Format                                   : FLAC
Format/Info                              : Free Lossless Audio Codec
Codec ID                                 : A_FLAC
Duration                                 : 1 h 47 min
Bit rate mode                            : Variable
Bit rate                                 : 234 kb/s
Channel(s)                               : 2 channels
Channel layout                           : L R
Sampling rate                            : 48.0 kHz
Frame rate                               : 11.719 FPS (4096 SPF)
Bit depth                                : 16 bits
Compression mode                         : Lossless
Stream size                              : 180 MiB (3%)
Title                                    : Cantonese (Alternate Version)
Writing library                          : libFLAC 1.2.1 (UTC 2007-09-17)
Language                                 : Chinese
Default                                  : No
Forced                                   : No

Audio #5
ID                                       : 6
Format                                   : AAC LC
Format/Info                              : Advanced Audio Codec Low Complexity
Codec ID                                 : A_AAC-2
Duration                                 : 1 h 47 min
Bit rate                                 : 92.5 kb/s
Channel(s)                               : 2 channels
Channel layout                           : L R
Sampling rate                            : 48.0 kHz
Frame rate                               : 46.875 FPS (1024 SPF)
Compression mode                         : Lossy
Delay relative to video                  : 9 ms
Stream size                              : 71.3 MiB (1%)
Title                                    : English Commentary by Mike Leeder and Arne Venema
Language                                 : English
Default                                  : No
Forced                                   : No

Audio #6
ID                                       : 7
Format                                   : AAC LC
Format/Info                              : Advanced Audio Codec Low Complexity
Codec ID                                 : A_AAC-2
Duration                                 : 1 h 47 min
Bit rate                                 : 87.2 kb/s
Channel(s)                               : 2 channels
Channel layout                           : L R
Sampling rate                            : 48.0 kHz
Frame rate                               : 46.875 FPS (1024 SPF)
Compression mode                         : Lossy
Delay relative to video                  : 9 ms
Stream size                              : 67.1 MiB (1%)
Title                                    : English Commentary by Brandon Bentley
Language                                 : English
Default                                  : No
Forced                                   : No

Text #1
ID                                       : 8
Format                                   : UTF-8
Codec ID                                 : S_TEXT/UTF8
Codec ID/Info                            : UTF-8 Plain Text
Duration                                 : 1 h 46 min
Bit rate                                 : 35 b/s
Count of elements                        : 788
Stream size                              : 27.4 KiB (0%)
Title                                    : English
Language                                 : English
Default                                  : Yes
Forced                                   : Yes

Text #2
ID                                       : 9
Format                                   : PGS
Muxing mode                              : zlib
Codec ID                                 : S_HDMV/PGS
Codec ID/Info                            : Picture based subtitle format used on BDs/HD-DVDs
Duration                                 : 1 h 46 min
Bit rate                                 : 18.0 kb/s
Count of elements                        : 1576
Stream size                              : 13.7 MiB (0%)
Title                                    : English
Language                                 : English
Default                                  : No
Forced                                   : No

Text #3
ID                                       : 10
Format                                   : UTF-8
Codec ID                                 : S_TEXT/UTF8
Codec ID/Info                            : UTF-8 Plain Text
Duration                                 : 1 h 46 min
Bit rate                                 : 1 b/s
Count of elements                        : 41
Stream size                              : 1.10 KiB (0%)
Title                                    : English forced
Language                                 : English
Default                                  : No
Forced                                   : No

Text #4
ID                                       : 11
Format                                   : PGS
Muxing mode                              : zlib
Codec ID                                 : S_HDMV/PGS
Codec ID/Info                            : Picture based subtitle format used on BDs/HD-DVDs
Duration                                 : 1 h 46 min
Bit rate                                 : 829 b/s
Count of elements                        : 82
Stream size                              : 646 KiB (0%)
Title                                    : English forced
Language                                 : English
Default                                  : No
Forced                                   : No

Text #5
ID                                       : 12
Format                                   : UTF-8
Codec ID                                 : S_TEXT/UTF8
Codec ID/Info                            : UTF-8 Plain Text
Duration                                 : 1 h 46 min
Bit rate                                 : 34 b/s
Count of elements                        : 784
Stream size                              : 27.1 KiB (0%)
Title                                    : English (for Cantonese tracks)
Language                                 : English
Default                                  : No
Forced                                   : No

Text #6
ID                                       : 13
Format                                   : PGS
Muxing mode                              : zlib
Codec ID                                 : S_HDMV/PGS
Codec ID/Info                            : Picture based subtitle format used on BDs/HD-DVDs
Duration                                 : 1 h 46 min
Bit rate                                 : 17.8 kb/s
Count of elements                        : 1568
Stream size                              : 13.6 MiB (0%)
Title                                    : English (for Cantonese tracks)
Language                                 : English
Default                                  : No
Forced                                   : No

Menu
00:00:00.000                             : en:00:00:00.000
00:09:44.793                             : en:00:09:44.793
00:20:11.419                             : en:00:20:11.419
00:30:58.732                             : en:00:30:58.732
00:39:29.993                             : en:00:39:29.993
00:48:26.821                             : en:00:48:26.821
00:56:33.724                             : en:00:56:33.724
01:04:43.713                             : en:01:04:43.713
01:14:58.285                             : en:01:14:58.285
01:22:52.759                             : en:01:22:52.759
01:30:09.029                             : en:01:30:09.029
01:38:45.795                             : en:01:38:45.795




                                                                                                                                                                                                        
                                                                                                                                                                                                                                                                                                                                                                                                                                                                                                                                                                                                                                                                                                                                                                                                                                                        
d5fafb41715bd79bcc0d94605184bcf1.zip (29.85 KB, 下载次数: 0)

回复

使用道具 举报

小黑屋|百度云资源论坛 |网站地图

本网站所有资源来自网络,如无意中侵犯了您的权益,请发邮件至 [email protected],立即清除相关链接

GMT+8, 2020-11-27 08:22 , Processed in 0.107018 second(s), 23 queries .

Powered by Discuz! X3.2

© 2001-2013 Comsenz Inc.

快速回复 返回顶部 返回列表