百度云资源论坛

 找回密码
 立即注册
搜索

儿子的房间 The.Sons.Room.2001.720p.BluRay.x264-USURY 5.93GB

[复制链接]
-->
帖子完整标题:儿子的房间 The.Sons.Room.2001.720p.BluRay.x264-USURY 5.93GB


[/url]

◎译  名 儿子的房间/The Son's Room/人间有情天/生命中的最痛
◎片  名 La stanza del figlio
◎年  代 2001
◎产  地 法国,意大利
◎类  别 剧情 / 悬疑 / 家庭
◎语  言 意大利语,拉丁语
◎上映日期 2001-03-09(意大利)
◎IMDb评分  7.3/10 from 17415 users
◎  
◎豆瓣评分 7.9/10 from 7810 users
◎ 
◎片  长 99分钟
◎导  演 南尼·莫莱蒂 Nanni Moretti
◎编  剧 南尼·莫莱蒂 Nanni Moretti / 琳达·费里 Linda Ferri / 海德鲁·施莱夫 Heidrun Schleef
◎主  演 南尼·莫莱蒂 Nanni Moretti
       劳拉·莫兰特 Laura Morante
       杰丝敏·特丽卡 Jasmine Trinca
       朱塞佩·桑菲利斯 Giuseppe Sanfelice
       斯特凡诺·阿伯蒂 Stefano Abbati
       斯特凡诺·阿科尔西 Stefano Accorsi
       托尼·贝尔多瑞利 Toni Bertorelli
       达里奥·坎塔雷利 Dario Cantarelli
       路易萨·代·圣提斯 Luisa De Santis
       西尔维奥·奥兰多 Silvio Orlando
       雷纳托·斯卡帕 Renato Scarpa
       罗伯托·诺毕雷 Roberto Nobile
       保罗·德·维塔 Paolo De Vita
       罗伯托·德·弗朗西斯科 Roberto De Francesco
       克劳迪奥·桑塔玛利亚 Claudio Santamaria
       安东尼奥·彼得塞利 Antonio Petrocelli

◎标  签 意大利 | 亲情 | 意大利电影 | 金棕榈 | 家庭 | 南尼·莫瑞提 | 法国 | 2001

◎简  介

  伊凡尼(南尼·莫莱蒂 Nanni Moretti 饰)有一个和睦温暖的家庭,儿子安德烈和女儿艾琳更是让这个家庭乐也融融。而伊凡尼身为心理医生,常常接触到各式各样的心理病患者,从而更加珍惜目前的生活。然而生活的残酷随之而来,在一个看上去平常的早晨,却传来了一个令这个家庭为之崩溃的消息——儿子在潜水运动中遇上不测,不幸身亡。
  
  伊凡尼一家顿时陷入了一篇黑暗当中,母亲终日以泪洗脸,姐姐艾琳压抑着痛苦照顾悲伤的父母,而父亲,更是因为过度悲痛而不能继续工作。而儿子空空如也的房间,深深刺痛了每个家人的心。
  
  远方寄来一个女孩子的来信,来信成全了家人对儿子的追思,并令到这个家庭重新有了一丝生机。然而逝者如斯,各人内心的伤痛,只有时间能慢慢治疗。

◎获奖情况

  第54届戛纳电影节 ?(2001)
  主竞赛单元金棕榈奖 南尼·莫莱蒂
  费比西奖竞赛单元奖 南尼·莫莱蒂
Video
ID                                       : 1
Format                                   : AVC
Format/Info                              : Advanced Video Codec
Format profile                           :
Format settings                          : CABAC / 9 Ref Frames
Format settings, CABAC                   : Yes
Format settings, Reference frames        : 9 frames
Codec ID                                 : V_MPEG4/ISO/AVC
Duration                                 : 1 h 39 min
Bit rate                                 : 7 739 kb/s
Width                                    : 1 194 pixels
Height                                   : 720 pixels
Display aspect ratio                     : 5:3
Frame rate mode                          : Constant
Frame rate                               : 24.000 FPS
Color space                              : YUV
Chroma subsampling                       : 4:2:0
Bit depth                                : 8 bits
Scan type                                : Progressive
Bits/(Pixel*Frame)                       : 0.375
Stream size                              : 5.39 GiB (91%)
Writing library                          : x264 core 161 r3027 4121277
Encoding settings                        : cabac=1 / ref=9 / deblock=1:-3:-3 / analyse=0x3:0x133 / me=umh / subme=10 / psy=1 / psy_rd=1.00:0.15 / mixed_ref=1 / me_range=24 / chroma_me=1 / trellis=2 / 8x8dct=1 / cqm=0 / deadzone=21,11 / fast_pskip=1 / chroma_qp_offset=-3 / threads=18 / lookahead_threads=3 / sliced_threads=0 / nr=0 / decimate=1 / interlaced=0 / bluray_compat=0 / constrained_intra=0 / bframes=8 / b_pyramid=2 / b_adapt=2 / b_bias=0 / direct=3 / weightb=1 / open_gop=0 / weightp=2 / keyint=250 / keyint_min=24 / scenecut=40 / intra_refresh=0 / rc_lookahead=60 / rc=crf / mbtree=1 / crf=18.0 / qcomp=0.60 / qpmin=0 / qpmax=69 / qpstep=4 / ip_ratio=1.40 / aq=3:0.50
Language                                 : English
Default                                  : Yes
Forced                                   : No

Audio
ID                                       : 2
Format                                   : FLAC
Format/Info                              : Free Lossless Audio Codec
Codec ID                                 : A_FLAC
Duration                                 : 1 h 39 min
Bit rate mode                            : Variable
Bit rate                                 : 747 kb/s
Channel(s)                               : 2 channels
Channel layout                           : L R
Sampling rate                            : 48.0 kHz
Frame rate                               : 11.719 FPS (4096 SPF)
Bit depth                                : 24 bits
Detected bit depth                       : 20 bits
Compression mode                         : Lossless
Stream size                              : 533 MiB (9%)
Writing library                          : libFLAC 1.2.1 (UTC 2007-09-17)
Language                                 : Italian
Default                                  : Yes
Forced                                   : No

Text #1
ID                                       : 3
Format                                   : UTF-8
Codec ID                                 : S_TEXT/UTF8
Codec ID/Info                            : UTF-8 Plain Text
Duration                                 : 1 h 35 min
Bit rate                                 : 46 b/s
Count of elements                        : 1103
Stream size                              : 32.5 KiB (0%)
Title                                    : English
Language                                 : English
Default                                  : Yes
Forced                                   : Yes

Text #2
ID                                       : 4
Format                                   : PGS
Muxing mode                              : zlib
Codec ID                                 : S_HDMV/PGS
Codec ID/Info                            : Picture based subtitle format used on BDs/HD-DVDs
Duration                                 : 1 h 35 min
Bit rate                                 : 10.1 kb/s
Count of elements                        : 2206
Stream size                              : 6.94 MiB (0%)
Title                                    : English
Language                                 : English
Default                                  : No
Forced                                   : No

Text #3
ID                                       : 5
Format                                   : UTF-8
Codec ID                                 : S_TEXT/UTF8
Codec ID/Info                            : UTF-8 Plain Text
Duration                                 : 1 h 36 min
Bit rate                                 : 49 b/s
Count of elements                        : 1111
Stream size                              : 34.9 KiB (0%)
Title                                    : French
Language                                 : French
Default                                  : No
Forced                                   : No

Text #4
ID                                       : 6
Format                                   : PGS
Muxing mode                              : zlib
Codec ID                                 : S_HDMV/PGS
Codec ID/Info                            : Picture based subtitle format used on BDs/HD-DVDs
Duration                                 : 1 h 36 min
Bit rate                                 : 10.1 kb/s
Count of elements                        : 2240
Stream size                              : 6.96 MiB (0%)
Title                                    : French
Language                                 : French
Default                                  : No
Forced                                   : No

Text #5
ID                                       : 7
Format                                   : UTF-8
Codec ID                                 : S_TEXT/UTF8
Codec ID/Info                            : UTF-8 Plain Text
Duration                                 : 1 h 35 min
Bit rate                                 : 55 b/s
Count of elements                        : 980
Stream size                              : 39.1 KiB (0%)
Title                                    : German
Language                                 : German
Default                                  : No
Forced                                   : No

Text #6
ID                                       : 8
Format                                   : PGS
Muxing mode                              : zlib
Codec ID                                 : S_HDMV/PGS
Codec ID/Info                            : Picture based subtitle format used on BDs/HD-DVDs
Duration                                 : 1 h 35 min
Bit rate                                 : 11.0 kb/s
Count of elements                        : 1960
Stream size                              : 7.52 MiB (0%)
Title                                    : German
Language                                 : German
Default                                  : No
Forced                                   : No

Menu
00:00:00.000                             : en:00:00:00.000
00:07:02.000                             : en:00:07:02.000
00:15:39.500                             : en:00:15:39.500
00:26:08.042                             : en:00:26:08.042
00:31:53.958                             : en:00:31:53.958
00:38:42.958                             : en:00:38:42.958
00:47:24.167                             : en:00:47:24.167
00:55:03.667                             : en:00:55:03.667
01:02:55.667                             : en:01:02:55.667
01:13:36.542                             : en:01:13:36.542
01:21:11.417                             : en:01:21:11.417
01:29:25.708                             : en:01:29:25.708
01:39:29.958                             : en:01:39:29.958
[/url]



                                                                                                                                                                                                        
                                                                                                                                                                                                                                                                                                                                                                                                                                                                                                                                                                                                                                                                                                                                                                                                                                                        
74ca0bfba26379aaff587824d559f8b2.zip (30.34 KB, 下载次数: 0)

回复

使用道具 举报

小黑屋|百度云资源论坛 |网站地图

本网站所有资源来自网络,如无意中侵犯了您的权益,请发邮件至 [email protected],立即清除相关链接

GMT+8, 2020-11-27 07:38 , Processed in 0.099597 second(s), 23 queries .

Powered by Discuz! X3.2

© 2001-2013 Comsenz Inc.

快速回复 返回顶部 返回列表