百度云资源论坛

 找回密码
 立即注册
搜索

弹窗惊魂/云端仇人 Open.Windows.2014.720p.BluRay.x264-SPECTRES 4.37GB

[复制链接]
百度云电影 发表于 2020-11-19 16:58:38 | 显示全部楼层 |阅读模式
-->
帖子完整标题:弹窗惊魂/云端仇人 Open.Windows.2014.720p.BluRay.x264-SPECTRES 4.37GB


[/url]

◎译  名 弹窗惊魂/云端仇人(台)/开启的窗口(台)
◎片  名 Open Windows
◎年  代 2014
◎产  地 法国,西班牙,美国
◎类  别 动作 / 惊悚 / 犯罪
◎语  言 英语,西班牙语
◎上映日期 2014-07-04(西班牙)
◎IMDb评分  5.2/10 from 13436 users
◎  
◎豆瓣评分 6.2/10 from 2319 users
◎ 
◎片  长 100分钟
◎导  演 那奇欧·维加隆多 Nacho Vigalondo
◎编  剧 那奇欧·维加隆多 Nacho Vigalondo
◎主  演 伊利亚·伍德 Elijah Wood
       萨莎·格蕾 Sasha Grey
       尼尔·马斯克尔 Neil Maskell
       米歇尔·珍娜 Michelle Jenner
       胡里安·毕亚格兰 Julián Villagrán
       卡洛斯·阿雷塞斯 Carlos Areces
       劳尔·西马斯 Raúl Cimas
       Miguel Noguera
       那奇欧·维加隆多 Nacho Vigalondo
       Richard Diment
       尤金尼奥·米拉 Eugenio Mira
       崔凡特·罗兹 Trevante Rhodes
       Mike McCutchen
       丹尼尔·佩雷兹·普拉达 Daniel Pérez Prada
       Rachel Arieff
       海梅·奥利亚斯 Jaime Olías
       伊凡·冈萨雷斯 Iván González

◎标  签 悬疑 | 惊悚 | 犯罪 | 西班牙 | 美国 | 黑客 | 法国 | 动作

◎简  介

  萨拉·格雷在片中饰演一名女演员,遭到了坏人的绑架(尼尔·马斯克尔),而伊利亚·伍德饰演的角色试图通过她在网络上遗留下来的痕迹,来找到她并救出她。影片的特别之处在于其全部镜头都是通过电脑摄像头、手机摄像头、监视器等现实生活中处处可见的视频工具拍摄而成。

◎获奖情况

  第29届西班牙戈雅奖 ?(2015)
  最佳特效(提名) DavidHeras?/?劳尔·罗曼尼洛斯
Video
ID                                       : 1
Format                                   : AVC
Format/Info                              : Advanced Video Codec
Format profile                           :
Format settings                          : CABAC / 5 Ref Frames
Format settings, CABAC                   : Yes
Format settings, Reference frames        : 5 frames
Codec ID                                 : V_MPEG4/ISO/AVC
Duration                                 : 1 h 40 min
Bit rate                                 : 4 715 kb/s
Width                                    : 1 280 pixels
Height                                   : 720 pixels
Display aspect ratio                     : 16:9
Frame rate mode                          : Constant
Frame rate                               : 24.000 FPS
Color space                              : YUV
Chroma subsampling                       : 4:2:0
Bit depth                                : 8 bits
Scan type                                : Progressive
Bits/(Pixel*Frame)                       : 0.213
Stream size                              : 3.23 GiB (74%)
Writing library                          : x264 core 144 r2525 40bb568
Encoding settings                        : cabac=1 / ref=5 / deblock=1:0:0 / analyse=0x3:0x133 / me=umh / subme=7 / psy=1 / psy_rd=1.00:0.00 / mixed_ref=1 / me_range=16 / chroma_me=1 / trellis=1 / 8x8dct=1 / cqm=0 / deadzone=21,11 / fast_pskip=0 / chroma_qp_offset=-2 / threads=12 / lookahead_threads=2 / sliced_threads=0 / nr=0 / decimate=1 / interlaced=0 / bluray_compat=0 / constrained_intra=0 / bframes=3 / b_pyramid=2 / b_adapt=2 / b_bias=0 / direct=3 / weightb=1 / open_gop=0 / weightp=2 / keyint=250 / keyint_min=24 / scenecut=40 / intra_refresh=0 / rc_lookahead=50 / rc=2pass / mbtree=1 / bitrate=4715 / ratetol=1.0 / qcomp=0.60 / qpmin=0 / qpmax=69 / qpstep=4 / cplxblur=20.0 / qblur=0.5 / ip_ratio=1.40 / aq=1:1.00
Default                                  : Yes
Forced                                   : No

Audio
ID                                       : 2
Format                                   : DTS
Format/Info                              : Digital Theater Systems
Codec ID                                 : A_DTS
Duration                                 : 1 h 40 min
Bit rate mode                            : Constant
Bit rate                                 : 1 509 kb/s
Channel(s)                               : 6 channels
Channel layout                           : C L R Ls Rs LFE
Sampling rate                            : 48.0 kHz
Frame rate                               : 93.750 FPS (512 SPF)
Bit depth                                : 24 bits
Compression mode                         : Lossy
Stream size                              : 1.06 GiB (24%)
Default                                  : Yes
Forced                                   : No

Menu
00:00:00.000                             : en:00:00:00.000
00:06:00.333                             : en:00:06:00.333
00:12:23.333                             : en:00:12:23.333
00:18:00.875                             : en:00:18:00.875
00:23:58.750                             : en:00:23:58.750
00:29:52.750                             : en:00:29:52.750
00:36:10.583                             : en:00:36:10.583
00:42:08.375                             : en:00:42:08.375
00:48:03.250                             : en:00:48:03.250
00:53:58.042                             : en:00:53:58.042
01:01:08.125                             : en:01:01:08.125
01:08:08.875                             : en:01:08:08.875
01:14:55.708                             : en:01:14:55.708
01:21:44.875                             : en:01:21:44.875
01:28:25.708                             : en:01:28:25.708
01:36:28.667                             : en:01:36:28.667
[/url][/url][/url]



                                                                                                                                                                                                        
                                                                                                                                                                                                                                                                                                                                                                                                                                                                                                                                                                                                                                                                                                                                                                                                                                                        
c2b3ddda34cd0795b201601b995c71ef.zip (44.39 KB, 下载次数: 0)

回复

使用道具 举报

小黑屋|百度云资源论坛 |网站地图

本网站所有资源来自网络,如无意中侵犯了您的权益,请发邮件至 [email protected],立即清除相关链接

GMT+8, 2020-11-27 08:28 , Processed in 0.101454 second(s), 23 queries .

Powered by Discuz! X3.2

© 2001-2013 Comsenz Inc.

快速回复 返回顶部 返回列表