百度云资源论坛

 找回密码
 立即注册
搜索

芬兰汤姆 Daddy.and.the.Muscle.Academy.1991.720p.BluRay.x264-BiPOLAR 2.49GB

[复制链接]
百度云资源 发表于 2020-11-19 10:53:54 | 显示全部楼层 |阅读模式
帖子完整标题:芬兰汤姆 Daddy.and.the.Muscle.Academy.1991.720p.BluRay.x264-BiPOLAR 2.49GB


[/url]

◎译  名 芬兰汤姆/Daddy and the Muscle Academy
◎片  名 Tom of Finland
◎年  代 1991
◎产  地 芬兰
◎类  别 纪录片
◎语  言 英语,芬兰语
◎上映日期 1991-10-18
◎IMDb评分  6.1/10 from 354 users
◎  
◎豆瓣评分 8.1/10 from 248 users
◎ 
◎片  长 58分钟(芬兰)
◎导  演 Ilppo Pohjola

◎标  签 情色 | 纪录片 | 芬兰 | 同性 | Gay | 同志 | Tom-of-Finland | 欧美同志电影

◎简  介

  圖克·拉科松南,因其筆名「芬蘭的湯姆」為西方世界所熟知。他是芬蘭同志性幻想崇拜藝術家,同志硬漢形象的締造者,以其同性愛藝術作品影響了20世紀晚期同性戀文化。芬蘭導演伊波·波赫尤拉在本片中為我們解釋了圖克·拉科松南的人生經歷和創作過程。
Video
ID                                       : 1
Format                                   : AVC
Format/Info                              : Advanced Video Codec
Format profile                           :
Format settings                          : CABAC / 11 Ref Frames
Format settings, CABAC                   : Yes
Format settings, Reference frames        : 11 frames
Codec ID                                 : V_MPEG4/ISO/AVC
Duration                                 : 57 min 42 s
Bit rate                                 : 5 457 kb/s
Width                                    : 1 008 pixels
Height                                   : 720 pixels
Display aspect ratio                     : 1.400
Frame rate mode                          : Constant
Frame rate                               : 23.976 (24000/1001/189150) FPS
Color space                              : YUV
Chroma subsampling                       : 4:2:0
Bit depth                                : 8 bits
Scan type                                : Progressive
Bits/(Pixel*Frame)                       : 0.314
Stream size                              : 2.20 GiB (88%)
Writing library                          : x264 core 161 r3027 4121277
Encoding settings                        : cabac=1 / ref=11 / deblock=1:-3:-3 / analyse=0x3:0x133 / me=umh / subme=10 / psy=1 / psy_rd=1.00:0.15 / mixed_ref=1 / me_range=24 / chroma_me=1 / trellis=2 / 8x8dct=1 / cqm=0 / deadzone=21,11 / fast_pskip=1 / chroma_qp_offset=-3 / threads=18 / lookahead_threads=3 / sliced_threads=0 / nr=0 / decimate=1 / interlaced=0 / bluray_compat=0 / constrained_intra=0 / bframes=8 / b_pyramid=2 / b_adapt=2 / b_bias=0 / direct=3 / weightb=1 / open_gop=0 / weightp=2 / keyint=250 / keyint_min=23 / scenecut=40 / intra_refresh=0 / rc_lookahead=60 / rc=crf / mbtree=1 / crf=14.0 / qcomp=0.60 / qpmin=0 / qpmax=69 / qpstep=4 / ip_ratio=1.40 / aq=3:0.50
Language                                 : English
Default                                  : Yes
Forced                                   : No

Audio
ID                                       : 2
Format                                   : AC-3
Format/Info                              : Audio Coding 3
Commercial name                          : Dolby Digital
Codec ID                                 : A_AC3
Duration                                 : 57 min 42 s
Bit rate mode                            : Constant
Bit rate                                 : 640 kb/s
Channel(s)                               : 6 channels
Channel layout                           : L R C LFE Ls Rs
Sampling rate                            : 48.0 kHz
Frame rate                               : 31.250 FPS (1536 SPF)
Compression mode                         : Lossy
Stream size                              : 264 MiB (10%)
Language                                 : English
Service kind                             : Complete Main
Default                                  : Yes
Forced                                   : No

Text #1
ID                                       : 3
Format                                   : UTF-8
Codec ID                                 : S_TEXT/UTF8
Codec ID/Info                            : UTF-8 Plain Text
Duration                                 : 51 min 47 s
Bit rate                                 : 28 b/s
Count of elements                        : 239
Stream size                              : 10.8 KiB (0%)
Title                                    : English forced
Language                                 : English
Default                                  : Yes
Forced                                   : Yes

Text #2
ID                                       : 4
Format                                   : PGS
Muxing mode                              : zlib
Codec ID                                 : S_HDMV/PGS
Codec ID/Info                            : Picture based subtitle format used on BDs/HD-DVDs
Duration                                 : 51 min 47 s
Bit rate                                 : 23.3 kb/s
Count of elements                        : 478
Stream size                              : 8.61 MiB (0%)
Title                                    : English forced
Language                                 : English
Default                                  : No
Forced                                   : No

Text #3
ID                                       : 5
Format                                   : UTF-8
Codec ID                                 : S_TEXT/UTF8
Codec ID/Info                            : UTF-8 Plain Text
Duration                                 : 55 min 19 s
Bit rate                                 : 79 b/s
Count of elements                        : 743
Stream size                              : 32.2 KiB (0%)
Title                                    : English
Language                                 : English
Default                                  : No
Forced                                   : No

Text #4
ID                                       : 6
Format                                   : UTF-8
Codec ID                                 : S_TEXT/UTF8
Codec ID/Info                            : UTF-8 Plain Text
Duration                                 : 55 min 46 s
Bit rate                                 : 84 b/s
Count of elements                        : 791
Stream size                              : 34.5 KiB (0%)
Title                                    : English SDH
Language                                 : English
Default                                  : No
Forced                                   : No

Text #5
ID                                       : 7
Format                                   : PGS
Muxing mode                              : zlib
Codec ID                                 : S_HDMV/PGS
Codec ID/Info                            : Picture based subtitle format used on BDs/HD-DVDs
Duration                                 : 55 min 46 s
Bit rate                                 : 67.5 kb/s
Count of elements                        : 1582
Stream size                              : 26.9 MiB (1%)
Title                                    : English SDH
Language                                 : English
Default                                  : No
Forced                                   : No

Menu
00:00:00.000                             : en:00:00:00.000
00:04:58.548                             : en:00:04:58.548
00:10:08.233                             : en:00:10:08.233
00:17:16.369                             : en:00:17:16.369
00:22:59.503                             : en:00:22:59.503
00:29:51.540                             : en:00:29:51.540
00:33:26.838                             : en:00:33:26.838
00:38:45.365                             : en:00:38:45.365
00:44:31.377                             : en:00:44:31.377
00:50:29.818                             : en:00:50:29.818
[/url]



                                                                                                                                                                                                        
                                                                                                                                                                                                                                                                                                                                                                                                                                                                                                                                                                                                                                                                                                                                                                                                                                                         60f4e07a4bd0894ed837085e1f22d1cd.zip (25.67 KB, 下载次数: 0)

回复

使用道具 举报

小黑屋|百度云资源论坛 |网站地图

本网站所有资源来自网络,如无意中侵犯了您的权益,请发邮件至 [email protected],立即清除相关链接

GMT+8, 2020-11-27 08:24 , Processed in 0.110809 second(s), 23 queries .

Powered by Discuz! X3.2

© 2001-2013 Comsenz Inc.

快速回复 返回顶部 返回列表