百度云资源论坛

 找回密码
 立即注册
搜索

雨季来临前/雨季 Monsoon.2019.1080p.BluRay.x264-BiPOLAR 8.19GB

[复制链接]
百度云电影 发表于 2020-11-19 08:26:41 | 显示全部楼层 |阅读模式
帖子完整标题:雨季来临前/雨季 Monsoon.2019.1080p.BluRay.x264-BiPOLAR 8.19GB


[/url]

◎译  名 雨季来临前/雨季
◎片  名 Monsoon
◎年  代 2019
◎产  地 英国
◎类  别 剧情 / 爱情 / 同性
◎语  言 英语
◎上映日期 2019-06-29(卡罗维发利电影节)
◎IMDb评分  5.9/10 from 562 users
◎  
◎豆瓣评分 5.8/10 from 82 users
◎ 
◎片  长 85分钟
◎导  演 许泰丰 Hong Khaou
◎编  剧 许泰丰 Hong Khaou
◎主  演 亨利·戈尔丁 Henry Golding
       帕克·索耶 Parker Sawyers
       Molly Harris Campbell

◎标  签 英国 | LGBT | 同性 | 2019 | 文艺 | 越南 | 同志 | HenryGolding

◎简  介

  基特(亨利·戈尔丁 Henry Golding 饰)年幼时跟随着父母躲避战火,一家人从越南前往英国,之后就再也没有回去过。一晃眼三十年过去,基特的父母早就双双离开了人世,基特带着两人的骨灰打算返回越南,让双亲的魂魄能够在故乡的土壤里安息。
  
  当基特踏上阔别了三十年的祖国的故土时,内心里百感交集。这里的一切都和他模糊的记忆截然不同,久远的过去对于基特来说仿佛一场快要消弭的梦。在越南,基特在社交软件上结识了一个名为路易斯(帕克·索耶 Parker Sawyers 饰)的男人,路易斯的父亲曾经参加过越南战争,即便两人在国别和立场上有着微妙的对立,但他们之间还是渐渐碰撞出了爱情的火花。

◎获奖情况

  第54届卡罗维发利国际电影节 ?(2019)
  水晶地球仪奖(提名) 许泰丰
Video
ID                                       : 1
Format                                   : AVC
Format/Info                              : Advanced Video Codec
Format profile                           :
Format settings                          : CABAC / 5 Ref Frames
Format settings, CABAC                   : Yes
Format settings, Reference frames        : 5 frames
Codec ID                                 : V_MPEG4/ISO/AVC
Duration                                 : 1 h 25 min
Bit rate                                 : 11.7 Mb/s
Width                                    : 1 920 pixels
Height                                   : 804 pixels
Display aspect ratio                     : 2.40:1
Frame rate mode                          : Constant
Frame rate                               : 24.000 FPS
Color space                              : YUV
Chroma subsampling                       : 4:2:0
Bit depth                                : 8 bits
Scan type                                : Progressive
Bits/(Pixel*Frame)                       : 0.317
Stream size                              : 7.00 GiB (85%)
Writing library                          : x264 core 161 r3027 4121277
Encoding settings                        : cabac=1 / ref=5 / deblock=1:-3:-3 / analyse=0x3:0x133 / me=umh / subme=10 / psy=1 / psy_rd=1.00:0.15 / mixed_ref=1 / me_range=24 / chroma_me=1 / trellis=2 / 8x8dct=1 / cqm=0 / deadzone=21,11 / fast_pskip=1 / chroma_qp_offset=-3 / threads=18 / lookahead_threads=3 / sliced_threads=0 / nr=0 / decimate=1 / interlaced=0 / bluray_compat=0 / constrained_intra=0 / bframes=8 / b_pyramid=2 / b_adapt=2 / b_bias=0 / direct=3 / weightb=1 / open_gop=0 / weightp=2 / keyint=250 / keyint_min=24 / scenecut=40 / intra_refresh=0 / rc_lookahead=60 / rc=crf / mbtree=1 / crf=16.0 / qcomp=0.60 / qpmin=0 / qpmax=69 / qpstep=4 / ip_ratio=1.40 / aq=3:0.80
Language                                 : English
Default                                  : Yes
Forced                                   : No
Color range                              : Limited
Matrix coefficients                      : BT.709

Audio
ID                                       : 2
Format                                   : DTS XLL
Format/Info                              : Digital Theater Systems
Commercial name                          : DTS-HD Master Audio
Codec ID                                 : A_DTS
Duration                                 : 1 h 25 min
Bit rate mode                            : Variable
Bit rate                                 : 1 986 kb/s
Channel(s)                               : 6 channels
Channel layout                           : C L R Ls Rs LFE
Sampling rate                            : 48.0 kHz
Frame rate                               : 93.750 FPS (512 SPF)
Bit depth                                : 16 bits
Compression mode                         : Lossless
Stream size                              : 1.18 GiB (14%)
Language                                 : English
Default                                  : Yes
Forced                                   : No

Text #1
ID                                       : 3
Format                                   : UTF-8
Codec ID                                 : S_TEXT/UTF8
Codec ID/Info                            : UTF-8 Plain Text
Duration                                 : 1 h 18 min
Bit rate                                 : 30 b/s
Count of elements                        : 640
Stream size                              : 17.8 KiB (0%)
Title                                    : English
Language                                 : English
Default                                  : No
Forced                                   : No

Text #2
ID                                       : 4
Format                                   : UTF-8
Codec ID                                 : S_TEXT/UTF8
Codec ID/Info                            : UTF-8 Plain Text
Duration                                 : 1 h 20 min
Bit rate                                 : 33 b/s
Count of elements                        : 730
Stream size                              : 19.6 KiB (0%)
Title                                    : English SDH
Language                                 : English
Default                                  : No
Forced                                   : No

Text #3
ID                                       : 5
Format                                   : PGS
Muxing mode                              : zlib
Codec ID                                 : S_HDMV/PGS
Codec ID/Info                            : Picture based subtitle format used on BDs/HD-DVDs
Duration                                 : 1 h 20 min
Bit rate                                 : 9 165 b/s
Count of elements                        : 1458
Stream size                              : 5.29 MiB (0%)
Title                                    : English SDH
Language                                 : English
Default                                  : No
Forced                                   : No

Menu
00:00:00.000                             : en:00:00:00.000
00:06:28.500                             : en:00:06:28.500
00:14:08.750                             : en:00:14:08.750
00:18:47.125                             : en:00:18:47.125
00:28:27.667                             : en:00:28:27.667
00:37:43.708                             : en:00:37:43.708
00:44:38.000                             : en:00:44:38.000
00:50:49.500                             : en:00:50:49.500
00:58:46.042                             : en:00:58:46.042
01:04:18.208                             : en:01:04:18.208
01:11:53.125                             : en:01:11:53.125
01:20:38.542                             : en:01:20:38.542
[/url]



                                                                                                                                                                                                        
                                                                                                                                                                                                                                                                                                                                                                                                                                                                                                                                                                                                                                                                                                                                                                                                                                                         7e471f92cad5055c03cd70fd1c521e2c.zip (41.64 KB, 下载次数: 0)

回复

使用道具 举报

小黑屋|百度云资源论坛 |网站地图

本网站所有资源来自网络,如无意中侵犯了您的权益,请发邮件至 [email protected],立即清除相关链接

GMT+8, 2020-12-3 02:43 , Processed in 0.106760 second(s), 23 queries .

Powered by Discuz! X3.2

© 2001-2013 Comsenz Inc.

快速回复 返回顶部 返回列表