百度云资源论坛

 找回密码
 立即注册
搜索

新变种人 The.New.Mutants.2020.1080p.BluRay.x264-MTNTS 9.83GB

[复制链接]
百度云电影 发表于 2020-11-19 08:26:41 | 显示全部楼层 |阅读模式
帖子完整标题:新变种人 The.New.Mutants.2020.1080p.BluRay.x264-MTNTS 9.83GB


[/url]

◎译  名 新变种人/X-Men: The New Mutants/变种人(台)/新变档人(豆友译名)/新异变人(港)
◎片  名 The New Mutants
◎年  代 2020
◎产  地 美国
◎类  别 动作 / 科幻 / 恐怖
◎语  言 英语
◎上映日期 2020-08-28(美国)
◎IMDb评分  5.3/10 from 23091 users
◎  
◎豆瓣评分 4.5/10 from 8835 users
◎ 
◎片  长 94分钟
◎导  演 约什·布恩 Josh Boone
◎编  剧 约什·布恩 Josh Boone / 内特·李 Knate Lee / 克里斯·克雷蒙 Chris Claremont / 莱恩·韦恩 Len Wein / 戴夫·科克勒姆 Dave Cockrum
◎主  演 麦茜·威廉姆斯 Maisie Williams
       安雅·泰勒-乔伊 Anya Taylor-Joy
       查理·希顿 Charlie Heaton
       艾莉丝·布拉加 Alice Braga
       布鲁·亨特 Blu Hunt
       亨利·扎格 Henry Zaga
       亚当·比奇 Adam Beach
       Colbi Gannett
       海皮·安德森 Happy Anderson
       玛丽莲·曼森 Marilyn Manson

◎标  签 X战警 | 科幻 | 漫威 | 美国 | X-Men | Marvel | 超级英雄 | 漫画改编

◎简  介

  当五位拥有特殊能力的青少年被关入秘密机构,有一股超自然恶势力正蠢蠢欲动,他们必须面对过去的罪恶,但内心的恐惧即将成真。神秘的背后似乎有巨大的阴谋正在成形,他们是否能勇敢对抗自身的力量,逃脱这一切枷锁……

◎获奖情况

  第6届豆瓣电影年度榜单 ?(2019)
  最值得期待的外语电影(提名)
Video
ID                                       : 1
Format                                   : AVC
Format/Info                              : Advanced Video Codec
Format profile                           :
Format settings                          : CABAC / 4 Ref Frames
Format settings, CABAC                   : Yes
Format settings, Reference frames        : 4 frames
Codec ID                                 : V_MPEG4/ISO/AVC
Duration                                 : 1 h 34 min
Bit rate                                 : 10.4 Mb/s
Width                                    : 1 920 pixels
Height                                   : 1 036 pixels
Display aspect ratio                     : 1.85:1
Frame rate mode                          : Constant
Frame rate                               : 23.976 (24000/1001/189150) FPS
Color space                              : YUV
Chroma subsampling                       : 4:2:0
Bit depth                                : 8 bits
Scan type                                : Progressive
Bits/(Pixel*Frame)                       : 0.218
Stream size                              : 6.83 GiB (69%)
Writing library                          : x264 core 161 r3027 4121277
Encoding settings                        : cabac=1 / ref=4 / deblock=1:-3:-3 / analyse=0x3:0x133 / me=umh / subme=9 / psy=1 / psy_rd=1.00:0.00 / mixed_ref=1 / me_range=32 / chroma_me=1 / trellis=2 / 8x8dct=1 / cqm=0 / deadzone=21,11 / fast_pskip=0 / chroma_qp_offset=-2 / threads=16 / lookahead_threads=2 / sliced_threads=0 / nr=0 / decimate=0 / interlaced=0 / bluray_compat=0 / constrained_intra=0 / bframes=8 / b_pyramid=2 / b_adapt=2 / b_bias=0 / direct=3 / weightb=1 / open_gop=0 / weightp=2 / keyint=250 / keyint_min=23 / scenecut=40 / intra_refresh=0 / rc_lookahead=60 / rc=crf / mbtree=1 / crf=16.0 / qcomp=0.60 / qpmin=0 / qpmax=69 / qpstep=4 / ip_ratio=1.40 / aq=3:0.88
Default                                  : Yes
Forced                                   : No
Color range                              : Limited
Matrix coefficients                      : BT.709

Audio
ID                                       : 2
Format                                   : DTS XLL
Format/Info                              : Digital Theater Systems
Commercial name                          : DTS-HD Master Audio
Codec ID                                 : A_DTS
Duration                                 : 1 h 34 min
Bit rate mode                            : Variable
Bit rate                                 : 4 543 kb/s
Channel(s)                               : 8 channels
Channel layout                           : C L R LFE Lb Rb Lss Rss
Sampling rate                            : 48.0 kHz
Frame rate                               : 93.750 FPS (512 SPF)
Bit depth                                : 24 bits
Compression mode                         : Lossless
Stream size                              : 2.98 GiB (30%)
Title                                    : English
Language                                 : English
Default                                  : No
Forced                                   : No

Text #1
ID                                       : 3
Format                                   : PGS
Muxing mode                              : zlib
Codec ID                                 : S_HDMV/PGS
Codec ID/Info                            : Picture based subtitle format used on BDs/HD-DVDs
Duration                                 : 1 h 26 min
Bit rate                                 : 34.8 kb/s
Count of elements                        : 2686
Stream size                              : 21.4 MiB (0%)
Title                                    : English
Language                                 : English
Default                                  : No
Forced                                   : No

Text #2
ID                                       : 4
Format                                   : PGS
Muxing mode                              : zlib
Codec ID                                 : S_HDMV/PGS
Codec ID/Info                            : Picture based subtitle format used on BDs/HD-DVDs
Duration                                 : 1 h 33 min
Bit rate                                 : 25.2 kb/s
Count of elements                        : 2020
Stream size                              : 16.8 MiB (0%)
Title                                    : French
Language                                 : French
Default                                  : No
Forced                                   : No

Text #3
ID                                       : 5
Format                                   : PGS
Muxing mode                              : zlib
Codec ID                                 : S_HDMV/PGS
Codec ID/Info                            : Picture based subtitle format used on BDs/HD-DVDs
Duration                                 : 1 h 26 min
Bit rate                                 : 26.5 kb/s
Count of elements                        : 1980
Stream size                              : 16.3 MiB (0%)
Title                                    : Spanish
Language                                 : Spanish
Default                                  : No
Forced                                   : No

Menu
00:00:00.000                             : en:Chapter 01
00:02:39.951                             : en:Chapter 02
00:08:07.737                             : en:Chapter 03
00:10:53.861                             : en:Chapter 04
00:14:33.038                             : en:Chapter 05
00:17:23.917                             : en:Chapter 06
00:19:53.066                             : en:Chapter 07
00:23:41.878                             : en:Chapter 08
00:27:54.589                             : en:Chapter 09
00:30:30.078                             : en:Chapter 10
00:33:26.587                             : en:Chapter 11
00:39:36.791                             : en:Chapter 12
00:43:12.965                             : en:Chapter 13
00:47:53.287                             : en:Chapter 14
00:50:35.157                             : en:Chapter 15
00:52:12.254                             : en:Chapter 16
00:55:28.825                             : en:Chapter 17
00:57:13.054                             : en:Chapter 18
01:00:17.113                             : en:Chapter 19
01:02:37.754                             : en:Chapter 20
01:06:36.367                             : en:Chapter 21
01:11:12.101                             : en:Chapter 22
01:13:44.461                             : en:Chapter 23
01:15:07.878                             : en:Chapter 24
01:18:57.107                             : en:Chapter 25
01:21:52.365                             : en:Chapter 26
01:24:32.275                             : en:Chapter 27
01:26:46.201                             : en:Chapter 28
[/url]



                                                                                                                                                                                                        
                                                                                                                                                                                                                                                                                                                                                                                                                                                                                                                                                                                                                                                                                                                                                                                                                                                         d12d8447162b7eb4f83caecfb2bda1d7.zip (49.83 KB, 下载次数: 0)

回复

使用道具 举报

小黑屋|百度云资源论坛 |网站地图

本网站所有资源来自网络,如无意中侵犯了您的权益,请发邮件至 [email protected],立即清除相关链接

GMT+8, 2020-12-3 02:05 , Processed in 0.106317 second(s), 23 queries .

Powered by Discuz! X3.2

© 2001-2013 Comsenz Inc.

快速回复 返回顶部 返回列表