百度云资源论坛

 找回密码
 立即注册
搜索

精神错乱/爆怒时速 Unhinged.2020.1080p.BluRay.x264-SURCODE 5.31GB

[复制链接]
百度云资源 发表于 2020-11-19 08:26:41 | 显示全部楼层 |阅读模式
帖子完整标题:精神错乱/爆怒时速 Unhinged.2020.1080p.BluRay.x264-SURCODE 5.31GB


[/url]

◎译  名 精神错乱/爆怒时速(港)/精神失常/超危险驾驶(台)
◎片  名 Unhinged
◎年  代 2020
◎产  地 美国
◎类  别 惊悚
◎语  言 英语
◎上映日期 2020-07-31(澳大利亚) / 2020-08-21(美国)
◎IMDb评分  6/10 from 20430 users
◎  
◎豆瓣评分 6.2/10 from 2602 users
◎ 
◎片  长 90分钟
◎导  演 德瑞克·伯特 Derrick Borte
◎编  剧 卡尔·埃尔斯沃斯 Carl Ellsworth
◎主  演 罗素·克劳 Russell Crowe
       凯伦·皮斯托里斯 Caren Pistorius
       加布里埃尔·贝特曼 Gabriel Bateman
       吉米·辛普森 Jimmi Simpson
       奥斯汀·麦肯齐 Austin P. McKenzie
       朱丽叶·乔伊纳 Juliene Joyner
       斯蒂芬·路易斯·格拉什 Stephen Louis Grush
       安妮·雷登 Anne Leighton
       德文·泰勒 Devyn A. Tyler
       西尔维娅·格雷丝·克里姆 Sylvia Grace Crim
       维维安·弗莱明·阿尔瓦雷斯 Vivian Fleming-Alvarez
       萨曼莎·博利厄 Samantha Beaulieu
       露西·浮士德 Lucy Faust
       谢丽尔·布朗 Scheryl W Brown
       迈克尔·帕帕约翰 Michael Papajohn
       格蕾琴·科尔纳 Gretchen Koerner
       唐娜·杜普兰提尔 Donna Duplantier
       布雷特·斯姆兹 Brett Smrz
       安德鲁·莫尔加多 Andrew Morgado
       戈登·德克海默 Gordon Dexheimer
       蒂莫西·辛里奇斯 Timothy Hinrichs

◎标  签 惊悚 | 犯罪 | 美国 | 罗素·克劳 | 2020 | 美国电影 | 悬疑 | 罗素克劳

◎简  介

  瑞秋(凯伦·皮斯托里斯 Caren Pistorius 饰)和丈夫正在分居之中,目前由她独自抚养着年幼的儿子凯伊(加布里埃尔·贝特曼 Gabriel Bateman 饰)。离婚事宜的商讨令瑞秋心力交瘁,睡过头的她眼看着就要迟到,却不巧碰上了高速公路大堵车。
  
  明明是绿灯,瑞秋却被停在她前面的一辆大卡车拦住了去路,失去耐心的瑞秋狂按喇叭,哪知道却惹恼了卡车司机(罗素·克劳 Russell Crowe 饰)。卡车司机命令瑞秋为她的不礼貌而道歉,瑞秋拒绝了,此时的瑞秋还并没有意识到,自己已经引火烧身。卡车司机是一名精神病患者,刚刚放火烧死了要同自己离婚的前妻一家子。他掉包了瑞秋的手机,开始对她进行人肉搜索和疯狂报复。
Video
ID                                       : 1
Format                                   : AVC
Format/Info                              : Advanced Video Codec
Format profile                           :
Format settings                          : CABAC / 5 Ref Frames
Format settings, CABAC                   : Yes
Format settings, Reference frames        : 5 frames
Codec ID                                 : V_MPEG4/ISO/AVC
Duration                                 : 1 h 30 min
Bit rate                                 : 6 380 kb/s
Width                                    : 1 920 pixels
Height                                   : 804 pixels
Display aspect ratio                     : 2.40:1
Frame rate mode                          : Constant
Frame rate                               : 24.000 FPS
Color space                              : YUV
Chroma subsampling                       : 4:2:0
Bit depth                                : 8 bits
Scan type                                : Progressive
Bits/(Pixel*Frame)                       : 0.172
Stream size                              : 4.02 GiB (76%)
Writing library                          : x264 core 161 r3018 db0d417
Encoding settings                        : cabac=1 / ref=5 / deblock=1:-3:-3 / analyse=0x3:0x133 / me=umh / subme=9 / psy=1 / psy_rd=1.00:0.00 / mixed_ref=1 / me_range=16 / chroma_me=1 / trellis=2 / 8x8dct=1 / cqm=0 / deadzone=21,11 / fast_pskip=0 / chroma_qp_offset=-2 / threads=25 / lookahead_threads=2 / sliced_threads=0 / nr=0 / decimate=1 / interlaced=0 / bluray_compat=0 / constrained_intra=0 / bframes=3 / b_pyramid=2 / b_adapt=2 / b_bias=0 / direct=3 / weightb=1 / open_gop=0 / weightp=2 / keyint=250 / keyint_min=24 / scenecut=40 / intra_refresh=0 / rc_lookahead=60 / rc=crf / mbtree=1 / crf=17.0 / qcomp=0.60 / qpmin=0 / qpmax=69 / qpstep=4 / ip_ratio=1.40 / aq=1:1.00
Language                                 : English
Default                                  : Yes
Forced                                   : No

Audio
ID                                       : 2
Format                                   : DTS XLL
Format/Info                              : Digital Theater Systems
Commercial name                          : DTS-HD Master Audio
Codec ID                                 : A_DTS
Duration                                 : 1 h 30 min
Bit rate mode                            : Variable
Bit rate                                 : 2 005 kb/s
Channel(s)                               : 6 channels
Channel layout                           : C L R Ls Rs LFE
Sampling rate                            : 48.0 kHz
Frame rate                               : 93.750 FPS (512 SPF)
Bit depth                                : 16 bits
Compression mode                         : Lossless
Stream size                              : 1.26 GiB (24%)
Language                                 : English
Default                                  : Yes
Forced                                   : No

Text
ID                                       : 3
Format                                   : PGS
Muxing mode                              : zlib
Codec ID                                 : S_HDMV/PGS
Codec ID/Info                            : Picture based subtitle format used on BDs/HD-DVDs
Duration                                 : 1 h 17 min
Bit rate                                 : 57.5 kb/s
Count of elements                        : 2184
Stream size                              : 31.9 MiB (1%)
Language                                 : German
Default                                  : No
Forced                                   : No

Menu
00:00:00.000                             : en:Kapitel 01
00:12:19.417                             : en:Kapitel 02
00:23:34.333                             : en:Kapitel 03
00:33:27.792                             : en:Kapitel 04
00:45:39.500                             : en:Kapitel 05
00:55:52.125                             : en:Kapitel 06
01:08:11.333                             : en:Kapitel 07
01:19:08.125                             : en:Kapitel 08
[/url]



                                                                                                                                                                                                        
                                                                                                                                                                                                                                                                                                                                                                                                                                                                                                                                                                                                                                                                                                                                                                                                                                                         fb979c0cde55a611498e45946f6a5d10.zip (27.24 KB, 下载次数: 0)

回复

使用道具 举报

小黑屋|百度云资源论坛 |网站地图

本网站所有资源来自网络,如无意中侵犯了您的权益,请发邮件至 [email protected],立即清除相关链接

GMT+8, 2020-12-3 03:07 , Processed in 0.103606 second(s), 23 queries .

Powered by Discuz! X3.2

© 2001-2013 Comsenz Inc.

快速回复 返回顶部 返回列表