百度云资源论坛

 找回密码
 立即注册
搜索

冰封侠:时空行者 Iceman.The.Time.Traveller.2018.CHINESE.1080p.BluRay.x2...

[复制链接]
百度云电影 发表于 2020-11-18 08:10:28 | 显示全部楼层 |阅读模式
帖子完整标题:冰封侠:时空行者 Iceman.The.Time.Traveller.2018.CHINESE.1080p.BluRay.x264-WiKi 7.68GB


[/url]

◎译  名 3D冰封侠2/Frozen: Eternity's Gate/Iceman 2/Iceman: The Time Traveller/The Frozen Hero II/冰封:永恒之门/冰封2:回到未来/冰封2:永恒之门/冰封侠:时空大战(港)/时空行者
◎片  名 冰封侠:时空行者
◎年  代 2018
◎产  地 中国大陆,中国香港
◎类  别 动作 / 奇幻
◎语  言 汉语普通话,粤语
◎上映日期 2018-11-02(中国大陆)
◎IMDb评分  3.9/10 from 719 users
◎  
◎豆瓣评分 2.6/10 from 10249 users
◎ 
◎片  长 87分钟
◎导  演 叶伟民 Raymond Yip Wai-Man
◎编  剧 文隽 Manfred Wong / 林逢 Fung Lam / 胡耀辉 Mark Wu
◎主  演 甄子丹 Donnie Yen
       黄圣依 Eva Huang
       王宝强 Baoqiang Wang
       任达华 Simon Yam
       喻亢 Kang Yu
       江疏影 Shuying Jiang
       仓田保昭 Yasuaki Kurata
       鲍起静 Hee Ching Paw
       林雪 Suet Lam
       庄思敏 Jacquelin Chong
       胡明 Ming Hu
       吴俊余 Junyu Wu
       王文绮 Wenqi Wang
       
       陈浩 Hao Chen
       林慧倩 Giselle Lam
       房广举 Guangju Fang
       胡曦文 Xiwen Hu
       韩梓庭 Ziting Han
       赵梦娜 Mengna Zhao
       武宗平 Zongping Wu

◎标  签 动作 | 尴尬 | 穿越 | 奇幻 | 武侠 | 香港 | 古装 | 2018

◎简  介

  明朝大将军贺英利用时空金球终于重返明朝,与锦衣卫兄弟萨獒获悉了倭寇和朝廷奸党之间足以倾覆皇权的密谋,绵延400年的惊天危机一触即发。贺英也在红颜知己小美的帮助下开始了抗倭锄奸和保护族人的战斗。
Video
ID                                       : 1
Format                                   : AVC
Format/Info                              : Advanced Video Codec
Format profile                           :
Format settings                          : CABAC / 5 Ref Frames
Format settings, CABAC                   : Yes
Format settings, ReFrames                : 5 frames
Codec ID                                 : V_MPEG4/ISO/AVC
Duration                                 : 1 h 27 min
Bit rate                                 : 12.0 Mb/s
Width                                    : 1 920 pixels
Height                                   : 802 pixels
Display aspect ratio                     : 2.40:1
Frame rate mode                          : Constant
Frame rate                               : 24.000 FPS
Color space                              : YUV
Chroma subsampling                       : 4:2:0
Bit depth                                : 8 bits
Scan type                                : Progressive
Bits/(Pixel*Frame)                       : 0.324
Stream size                              : 7.29 GiB (95%)
Writing library                          : x264 core 155 r2867+82 a249126 t_mod_Custom_2 [ X86_64]
Encoding settings                        : cabac=1 / ref=5 / deblock=1:-3:-3 / analyse=0x3:0x133 / me=umh / subme=10 / psy=1 / fade_compensate=0.00 / psy_rd=1.05:0.00 / mixed_ref=1 / me_range=48 / chroma_me=1 / trellis=2 / 8x8dct=1 / cqm=0 / deadzone=21,11 / fast_pskip=0 / chroma_qp_offset=-2 / threads=24 / lookahead_threads=4 / sliced_threads=0 / nr=0 / decimate=0 / interlaced=0 / bluray_compat=0 / constrained_intra=0 / fgo=0 / bframes=7 / b_pyramid=2 / b_adapt=2 / b_bias=0 / direct=3 / weightb=1 / open_gop=0 / weightp=2 / keyint=250 / keyint_min=24 / scenecut=40 / intra_refresh=0 / rc_lookahead=60 / rc=crf / mbtree=0 / crf=17.0000 / qcomp=0.60 / qpmin=0:0:0 / qpmax=69:69:69 / qpstep=4 / vbv_maxrate=62500 / vbv_bufsize=78125 / crf_max=0.0 / nal_hrd=none / filler=0 / ip_ratio=1.40 / pb_ratio=1.30 / aq=3:0.85 / aq-sensitivity=10.00 / aq-factor=1.00:1.00:1.00 / aq2=0 / aq3=0 / zones=828,908,crf=16/1037,1047,crf=15
Default                                  : Yes
Forced                                   : No

Audio
ID                                       : 2
Format                                   : AC-3
Format/Info                              : Audio Coding 3
Commercial name                          : Dolby Digital
Codec ID                                 : A_AC3
Duration                                 : 1 h 27 min
Bit rate mode                            : Constant
Bit rate                                 : 640 kb/s
Channel(s)                               : 6 channels
Channel layout                           : L R C LFE Ls Rs
Sampling rate                            : 48.0 kHz
Frame rate                               : 31.250 FPS (1536 SPF)
Bit depth                                : 16 bits
Compression mode                         : Lossy
Stream size                              : 399 MiB (5%)
Title                                    : Cantonese
Language                                 : Chinese
Service kind                             : Complete Main
Default                                  : Yes
Forced                                   : No

Text #1
ID                                       : 3
Format                                   : UTF-8
Codec ID                                 : S_TEXT/UTF8
Codec ID/Info                            : UTF-8 Plain Text
Duration                                 : 1 h 21 min
Bit rate                                 : 44 b/s
Count of elements                        : 1013
Stream size                              : 26.6 KiB (0%)
Language                                 : English
Default                                  : Yes
Forced                                   : Yes

Text #2
ID                                       : 4
Format                                   : UTF-8
Codec ID                                 : S_TEXT/UTF8
Codec ID/Info                            : UTF-8 Plain Text
Duration                                 : 1 h 21 min
Bit rate                                 : 38 b/s
Count of elements                        : 1018
Stream size                              : 23.1 KiB (0%)
Title                                    : CHS
Language                                 : Chinese
Default                                  : No
Forced                                   : No

Text #3
ID                                       : 5
Format                                   : UTF-8
Codec ID                                 : S_TEXT/UTF8
Codec ID/Info                            : UTF-8 Plain Text
Duration                                 : 1 h 21 min
Bit rate                                 : 38 b/s
Count of elements                        : 1018
Stream size                              : 23.1 KiB (0%)
Title                                    : CHT
Language                                 : Chinese
Default                                  : No
Forced                                   : No

Menu
00:00:00.000                             : en:00:00:00.000
00:08:11.542                             : en:00:08:11.542
00:14:17.083                             : en:00:14:17.083
00:22:23.167                             : en:00:22:23.167
00:29:38.583                             : en:00:29:38.583
00:37:04.750                             : en:00:37:04.750
00:43:57.208                             : en:00:43:57.208
00:50:31.708                             : en:00:50:31.708
00:59:27.833                             : en:00:59:27.833
01:04:20.125                             : en:01:04:20.125
01:12:35.042                             : en:01:12:35.042
01:19:37.458                             : en:01:19:37.458
[/url][/url]



                                                                                                                                                                                                        
                                                                                                                                                                                                                                                                                                                                                                                                                                                                                                                                                                                                                                                                                                                                                                                                                                                         68347ea1588364216144c901bebaf943.zip (77.49 KB, 下载次数: 0)

回复

使用道具 举报

小黑屋|百度云资源论坛 |网站地图

本网站所有资源来自网络,如无意中侵犯了您的权益,请发邮件至 [email protected],立即清除相关链接

GMT+8, 2020-12-3 02:03 , Processed in 0.107121 second(s), 23 queries .

Powered by Discuz! X3.2

© 2001-2013 Comsenz Inc.

快速回复 返回顶部 返回列表