百度云资源论坛

 找回密码
 立即注册
搜索

黄金兄弟 Golden.Job.2018.CHINESE.1080p.BluRay.x264.DTS-WiKi 8.97GB

[复制链接]
百度云资源 发表于 2020-11-18 08:10:28 | 显示全部楼层 |阅读模式
帖子完整标题:黄金兄弟 Golden.Job.2018.CHINESE.1080p.BluRay.x264.DTS-WiKi 8.97GB


[/url]

◎译  名 Golden Job/新古惑仔/新版古惑仔/黄金七十二小时
◎片  名 黄金兄弟
◎年  代 2018
◎产  地 中国大陆
◎类  别 动作 / 犯罪
◎语  言 粤语,汉语普通话
◎上映日期 2018-09-20(中国香港) / 2018-09-21(中国大陆)
◎IMDb评分  5.7/10 from 862 users
◎  
◎豆瓣评分 5.0/10 from 45173 users
◎ 
◎片  长 99分钟
◎导  演 钱嘉乐 Kar Lok Chin
◎编  剧 金东圭 Dong-kyu Kim / 郭建乐 Kin-Lok Kwok / 李敏 Erica Lee / 麦曦茵 Heiward Mak / 陈淑贤 Susan Chan / 张之彦 Chi Yin Cheung / 钱嘉乐 Kar Lok Chin
◎主  演 郑伊健 Ekin Cheng
       陈小春 Jordan Chan
       谢天华 Michael Tse
       钱嘉乐 Kar Lok Chin
       林晓峰 Jerry Lamb
       曾志伟 Eric Tsang
       佘诗曼 Charmaine Sheh
       雅玫 Yamei Zhang
       吴永伦 Alan Ng
       仓田保昭 Yasuaki Kurata
       岑珈其 Kaki Sham
       周比利 Billy Chow
       杨恭如 Kristy Yang
       马铁摩 Temur Mamisashvili
       刘伟强 Andrew Lau
       莱安德罗·梅厄·马丁内斯 Leandro Mayor Martinez
       纪焕博 Rock Ji
       舍米奎维尔·拉菲塔 Semiquaver Iafeta
       蒋中炜 Zhongwei Jiang
       佐格赛坎·纳兰索格特 Tsogtsaikan Narantsogt
       魏允熙 Yunxi Wei
       李宗彥 Jason Li
       黄伟辉 Wong Wai-Fai
       今井龙惺 Ryusei Imai
       弗雷德里克·叶德斯特罗姆 Fredrik Yderstr?m
       大卫·约翰逊·伍德 David Johnson Wood
       王杰 Dave Wong
       大卫·托罗克 David Torok
       亚历克斯·皮希汀 Alex Pychtin
       朱薇彤 Wei-tong Jhu
       比约恩·弗赖贝格 Bj?rn Freiberg
       保罗·菲利普·克拉克 Paul Philip Clark
       张宇 Phil Chang
       瑟吉·诺普科 Sergej Onopko
       马蒂厄·雅克 Mathieu Jaquet
       科萨巴·戈兹托尼 Csaba Gosztonyi
       舒淇 Qi Shu

◎标  签 古惑仔重聚 | 香港 | 情怀 | 动作 | 怀旧 | 犯罪 | 2018 | 黑帮

◎简  介

  狮王(郑伊健 饰)、火山(陈小春 饰)、Bill(谢天华 饰)、淡定(钱嘉乐 饰)、老鼠(林晓峰 饰)五个出生入死的兄弟,在恩师曹sir(曾志伟 饰)的带领下,为了救济儿童而偷取特效药,却惨遭设局,陷入枪林弹雨的险境之中。兄弟们抱着视死如归的豪情,展开一连串的追查与激战。他们明白,即使无法活着回来,也比一人活着痛快!

◎获奖情况

  第38届香港电影金像奖 ?(2019)
  最佳动作设计(提名) 钱嘉乐?/?吴永伦?/?邓瑞华
  最佳原创电影音乐(提名) 陈光荣
  最佳原创电影歌曲(提名) 陈光荣
Video
ID                                       : 1
Format                                   : AVC
Format/Info                              : Advanced Video Codec
Format profile                           :
Format settings                          : CABAC / 5 Ref Frames
Format settings, CABAC                   : Yes
Format settings, ReFrames                : 5 frames
Codec ID                                 : V_MPEG4/ISO/AVC
Duration                                 : 1 h 39 min
Bit rate                                 : 11.5 Mb/s
Width                                    : 1 920 pixels
Height                                   : 816 pixels
Display aspect ratio                     : 2.35:1
Frame rate mode                          : Constant
Frame rate                               : 24.000 FPS
Color space                              : YUV
Chroma subsampling                       : 4:2:0
Bit depth                                : 8 bits
Scan type                                : Progressive
Bits/(Pixel*Frame)                       : 0.305
Stream size                              : 7.93 GiB (88%)
Writing library                          : x264 core 129 r2245 bc13772
Encoding settings                        : cabac=1 / ref=5 / deblock=1:-3:-3 / analyse=0x3:0x133 / me=umh / subme=11 / psy=1 / psy_rd=1.05:0.05 / mixed_ref=1 / me_range=64 / chroma_me=1 / trellis=2 / 8x8dct=1 / cqm=0 / deadzone=21,11 / fast_pskip=0 / chroma_qp_offset=-3 / threads=12 / lookahead_threads=2 / sliced_threads=0 / nr=0 / decimate=1 / interlaced=0 / bluray_compat=0 / constrained_intra=0 / bframes=8 / b_pyramid=2 / b_adapt=2 / b_bias=0 / direct=3 / weightb=1 / open_gop=0 / weightp=2 / keyint=250 / keyint_min=24 / scenecut=40 / intra_refresh=0 / rc_lookahead=60 / rc=2pass / mbtree=1 / bitrate=11467 / ratetol=1.0 / qcomp=0.60 / qpmin=0 / qpmax=69 / qpstep=4 / cplxblur=20.0 / qblur=0.5 / vbv_maxrate=40000 / vbv_bufsize=30000 / nal_hrd=none / ip_ratio=1.40 / aq=1:0.80
Language                                 : English
Default                                  : Yes
Forced                                   : No

Audio
ID                                       : 2
Format                                   : DTS
Format/Info                              : Digital Theater Systems
Codec ID                                 : A_DTS
Duration                                 : 1 h 39 min
Bit rate mode                            : Constant
Bit rate                                 : 1 509 kb/s
Channel(s)                               : 6 channels
Channel layout                           : C L R Ls Rs LFE
Sampling rate                            : 48.0 kHz
Frame rate                               : 93.750 FPS (512 SPF)
Bit depth                                : 16 bits
Compression mode                         : Lossy
Stream size                              : 1.05 GiB (12%)
Language                                 : Chinese
Default                                  : Yes
Forced                                   : No

Text #1
ID                                       : 3
Format                                   : UTF-8
Codec ID                                 : S_TEXT/UTF8
Codec ID/Info                            : UTF-8 Plain Text
Duration                                 : 1 h 35 min
Bit rate                                 : 36 b/s
Count of elements                        : 1168
Stream size                              : 25.9 KiB (0%)
Title                                    : 简体
Language                                 : Chinese
Default                                  : Yes
Forced                                   : No

Text #2
ID                                       : 4
Format                                   : UTF-8
Codec ID                                 : S_TEXT/UTF8
Codec ID/Info                            : UTF-8 Plain Text
Duration                                 : 1 h 35 min
Bit rate                                 : 36 b/s
Count of elements                        : 1168
Stream size                              : 25.9 KiB (0%)
Title                                    : 繁体
Language                                 : Chinese
Default                                  : No
Forced                                   : No
[/url][/url][/url]



                                                                                                                                                                                                        
                                                                                                                                                                                                                                                                                                                                                                                                                                                                                                                                                                                                                                                                                                                                                                                                                                                         5c2d907aff47839bae9616b1e4135f0e.zip (90.38 KB, 下载次数: 0)

回复

使用道具 举报

小黑屋|百度云资源论坛 |网站地图

本网站所有资源来自网络,如无意中侵犯了您的权益,请发邮件至 [email protected],立即清除相关链接

GMT+8, 2020-12-3 03:06 , Processed in 0.108929 second(s), 23 queries .

Powered by Discuz! X3.2

© 2001-2013 Comsenz Inc.

快速回复 返回顶部 返回列表