百度云资源论坛

 找回密码
 立即注册
搜索

重演谁的错/到底谁的错 The.Argument.2020.1080p.BluRay.x264-iFT 8.71GB

[复制链接]
百度云资源 发表于 2020-11-18 08:10:28 | 显示全部楼层 |阅读模式
帖子完整标题:重演谁的错/到底谁的错 The.Argument.2020.1080p.BluRay.x264-iFT 8.71GB


[/url]

◎译  名 重演谁的错/到底谁的错
◎片  名 The Argument
◎年  代 2020
◎产  地 美国
◎类  别 喜剧
◎语  言 英语
◎上映日期 2020-09-04(美国)
◎IMDb评分  4.5/10 from 256 users
◎  
◎豆瓣评分 /10 from 0 users
◎ 
◎导  演 罗伯特·舒瓦兹曼 Robert Schwartzman
◎主  演 李美琪 Maggie Q
       泰勒·詹姆斯·威廉姆 Tyler James Williams
       丹·福勒 Dan Fogler
       艾玛·贝尔 Emma Bell

◎标  签 电影 | 李美琪 | 搞笑 | film | [歐美]

◎简  介

  一对夫妇在他们的鸡尾酒派对上发生了争吵,争吵不断升级,直到宴会突然结束。他们和他们的客人决定一次又一次地重现整个夜晚,以确定谁是对的。
Video
ID                                       : 1
Format                                   : AVC
Format/Info                              : Advanced Video Codec
Format profile                           :
Format settings                          : CABAC / 5 Ref Frames
Format settings, CABAC                   : Yes
Format settings, Reference frames        : 5 frames
Codec ID                                 : V_MPEG4/ISO/AVC
Duration                                 : 1 h 21 min
Bit rate                                 : 14.2 Mb/s
Width                                    : 1 920 pixels
Height                                   : 804 pixels
Display aspect ratio                     : 2.40:1
Frame rate mode                          : Constant
Frame rate                               : 23.976 (24000/1001/189150) FPS
Color space                              : YUV
Chroma subsampling                       : 4:2:0
Bit depth                                : 8 bits
Scan type                                : Progressive
Bits/(Pixel*Frame)                       : 0.384
Stream size                              : 8.13 GiB (93%)
Writing library                          : x264 core 161 r3018+53 ~ Encoded by Mocunaman in Portugal
Encoding settings                        : cabac=1 / ref=5 / deblock=1:-3:-3 / analyse=0x3:0x113 / me=umh / subme=11 / psy=1 / fade_compensate=0.00 / psy_rd=1.00:0.00 / mixed_ref=1 / me_range=32 / chroma_me=1 / trellis=2 / 8x8dct=1 / cqm=0 / deadzone=21,11 / fast_pskip=0 / chroma_qp_offset=-2 / threads=25 / lookahead_threads=4 / sliced_threads=0 / nr=0 / decimate=0 / interlaced=0 / bluray_compat=0 / constrained_intra=0 / fgo=0 / bframes=9 / b_pyramid=2 / b_adapt=2 / b_bias=0 / direct=3 / weightb=1 / open_gop=0 / weightp=2 / keyint=250 / keyint_min=23 / scenecut=40 / intra_refresh=0 / rc_lookahead=60 / rc=crf / mbtree=0 / crf=16.6000 / qcomp=0.60 / qpmin=0:0:0 / qpmax=69:69:69 / qpstep=4 / vbv_maxrate=62500 / vbv_bufsize=78125 / crf_max=0.0 / nal_hrd=none / filler=0 / ip_ratio=1.30 / pb_ratio=1.20 / aq=3:0.85 / aq-sensitivity=10.00 / aq-factor=1.00:1.00:1.00 / aq2=0 / aq3=0
Language                                 : English
Default                                  : Yes
Forced                                   : No
Color range                              : Limited
Color primaries                          : BT.709
Transfer characteristics                 : BT.709
Matrix coefficients                      : BT.709

Audio
ID                                       : 2
Format                                   : E-AC-3
Format/Info                              : Enhanced AC-3
Commercial name                          : Dolby Digital Plus
Codec ID                                 : A_EAC3
Duration                                 : 1 h 21 min
Bit rate mode                            : Constant
Bit rate                                 : 1 024 kb/s
Channel(s)                               : 6 channels
Channel layout                           : L R C LFE Ls Rs
Sampling rate                            : 48.0 kHz
Frame rate                               : 31.250 FPS (1536 SPF)
Compression mode                         : Lossy
Stream size                              : 599 MiB (7%)
Title                                    : E-AC3 DD+5.1 1024kbs
Language                                 : English
Service kind                             : Complete Main
Default                                  : Yes
Forced                                   : No

Text #1
ID                                       : 3
Format                                   : UTF-8
Codec ID                                 : S_TEXT/UTF8
Codec ID/Info                            : UTF-8 Plain Text
Duration                                 : 1 h 17 min
Bit rate                                 : 98 b/s
Count of elements                        : 1527
Stream size                              : 56.0 KiB (0%)
Title                                    : Full .srt
Language                                 : English
Default                                  : No
Forced                                   : No

Text #2
ID                                       : 4
Format                                   : UTF-8
Codec ID                                 : S_TEXT/UTF8
Codec ID/Info                            : UTF-8 Plain Text
Duration                                 : 1 h 21 min
Bit rate                                 : 104 b/s
Count of elements                        : 1760
Stream size                              : 62.5 KiB (0%)
Title                                    : SDH .srt
Language                                 : English
Default                                  : No
Forced                                   : No

Menu
00:00:00.000                             : en:Chapter 01
00:11:28.062                             : en:Chapter 02
00:23:54.016                             : en:Chapter 03
00:32:06.424                             : en:Chapter 04
00:42:20.913                             : en:Chapter 05
00:57:42.876                             : en:Chapter 06
01:08:52.378                             : en:Chapter 07
01:18:37.546                             : en:Chapter 08
[/url][/url]



                                                                                                                                                                                                        
                                                                                                                                                                                                                                                                                                                                                                                                                                                                                                                                                                                                                                                                                                                                                                                                                                                         ccc9a4d9da2124c9e8aa3f33359f2c6f.zip (44.2 KB, 下载次数: 0)

回复

使用道具 举报

小黑屋|百度云资源论坛 |网站地图

本网站所有资源来自网络,如无意中侵犯了您的权益,请发邮件至 [email protected],立即清除相关链接

GMT+8, 2020-12-2 15:32 , Processed in 0.105266 second(s), 23 queries .

Powered by Discuz! X3.2

© 2001-2013 Comsenz Inc.

快速回复 返回顶部 返回列表