百度云资源论坛

 找回密码
 立即注册
搜索

戴高乐 De.Gaulle.2020.FRENCH.1080p.BluRay.x264.DTS-NOGRP 14.73GB

[复制链接]
百度云资源 发表于 2020-11-17 07:54:37 | 显示全部楼层 |阅读模式
帖子完整标题:戴高乐 De.Gaulle.2020.FRENCH.1080p.BluRay.x264.DTS-NOGRP 14.73GB


[/url]

◎译  名 戴高乐
◎片  名 De Gaulle
◎年  代 2020
◎产  地 法国
◎类  别 传记 / 历史
◎语  言 法语
◎上映日期 2020-03-04(法国)
◎IMDb评分  5.9/10 from 516 users
◎  
◎豆瓣评分 /10 from 0 users
◎ 
◎片  长 107分钟
◎导  演 加布里埃尔·勒博明  Gabriel Le Bomin
◎编  剧 加布里埃尔·勒博明  Gabriel Le Bomin
◎主  演 朗贝尔·维尔森 Lambert Wilson
       伊莎贝尔·卡雷 Isabelle Carré
       安德鲁·比克内尔 Andrew Bicknell
       奥利维埃·古尔梅 Olivier Gourmet
       索菲·昆汀 Sophie Quinton
       尼古拉斯·罗宾 Nicolas Robin
       维克多·贝尔蒙多 Victor Belmondo
       埃弗琳·布尔 Evelyne Buyle
       蒂姆·哈德森 Tim Hudson
       凯斯特·洛夫莱斯 Kester Lovelace
       德里克·西蒙·罗宾 Derek Simon Robin
       凯瑟琳·蒙切特 Catherine Mouchet

◎标  签 法国 | 传记 | 传记片 | 历史 | 法国电影 | 2020 | 二战 | 战争

◎简  介

  1940年6月,巴黎,戴高乐夫妇面临法国的军事和政治上的崩溃,戴高乐选择奔赴伦敦继续抗战,而他的妻子伊冯则与三个孩子一起踏上远赴埃及之路。
Video
ID                                       : 1
Format                                   : AVC
Format/Info                              : Advanced Video Codec
Format profile                           :
Format settings                          : CABAC / 5 Ref Frames
Format settings, CABAC                   : Yes
Format settings, Reference frames        : 5 frames
Codec ID                                 : V_MPEG4/ISO/AVC
Duration                                 : 1 h 48 min
Bit rate                                 : 17.8 Mb/s
Width                                    : 1 920 pixels
Height                                   : 804 pixels
Display aspect ratio                     : 2.40:1
Frame rate mode                          : Constant
Frame rate                               : 24.000 FPS
Color space                              : YUV
Chroma subsampling                       : 4:2:0
Bit depth                                : 8 bits
Scan type                                : Progressive
Bits/(Pixel*Frame)                       : 0.482
Stream size                              : 13.6 GiB (92%)
Writing library                          : x264 core 161 r3018+53 ~ Encoded by Mocunaman in Portugal
Encoding settings                        : cabac=1 / ref=5 / deblock=1:-3:-3 / analyse=0x3:0x113 / me=umh / subme=11 / psy=1 / fade_compensate=0.00 / psy_rd=1.00:0.00 / mixed_ref=1 / me_range=32 / chroma_me=1 / trellis=2 / 8x8dct=1 / cqm=0 / deadzone=21,11 / fast_pskip=0 / chroma_qp_offset=-2 / threads=25 / lookahead_threads=4 / sliced_threads=0 / nr=0 / decimate=0 / interlaced=0 / bluray_compat=0 / constrained_intra=0 / fgo=0 / bframes=8 / b_pyramid=2 / b_adapt=2 / b_bias=0 / direct=3 / weightb=1 / open_gop=0 / weightp=2 / keyint=250 / keyint_min=24 / scenecut=40 / intra_refresh=0 / rc_lookahead=60 / rc=crf / mbtree=0 / crf=16.2000 / qcomp=0.65 / qpmin=0:0:0 / qpmax=69:69:69 / qpstep=4 / vbv_maxrate=62500 / vbv_bufsize=78125 / crf_max=0.0 / nal_hrd=none / filler=0 / ip_ratio=1.30 / pb_ratio=1.20 / aq=3:0.85 / aq-sensitivity=10.00 / aq-factor=1.00:1.00:1.00 / aq2=0 / aq3=0 / zones=9734,13372,crf=15.7/89838,92772,crf=15.7/95657,98288,crf=15.7/130292,133581,crf=15.7/134492,139804,crf=14.7
Language                                 : English
Default                                  : Yes
Forced                                   : No
Color range                              : Limited
Color primaries                          : BT.709
Transfer characteristics                 : BT.709
Matrix coefficients                      : BT.709

Audio
ID                                       : 2
Format                                   : DTS
Format/Info                              : Digital Theater Systems
Codec ID                                 : A_DTS
Duration                                 : 1 h 48 min
Bit rate mode                            : Constant
Bit rate                                 : 1 509 kb/s
Channel(s)                               : 6 channels
Channel layout                           : C L R Ls Rs LFE
Sampling rate                            : 48.0 kHz
Frame rate                               : 93.750 FPS (512 SPF)
Bit depth                                : 24 bits
Compression mode                         : Lossy
Stream size                              : 1.15 GiB (8%)
Title                                    : DTS 5.1
Language                                 : French
Default                                  : Yes
Forced                                   : No

Text #1
ID                                       : 3
Format                                   : UTF-8
Codec ID                                 : S_TEXT/UTF8
Codec ID/Info                            : UTF-8 Plain Text
Duration                                 : 1 h 47 min
Bit rate                                 : 53 b/s
Count of elements                        : 1177
Stream size                              : 42.2 KiB (0%)
Language                                 : English
Default                                  : Yes
Forced                                   : Yes

Text #2
ID                                       : 4
Format                                   : UTF-8
Codec ID                                 : S_TEXT/UTF8
Codec ID/Info                            : UTF-8 Plain Text
Duration                                 : 1 h 18 min
Bit rate                                 : 8 b/s
Count of elements                        : 151
Stream size                              : 5.06 KiB (0%)
Title                                    : Forced
Language                                 : French
Default                                  : No
Forced                                   : No

Text #3
ID                                       : 5
Format                                   : UTF-8
Codec ID                                 : S_TEXT/UTF8
Codec ID/Info                            : UTF-8 Plain Text
Duration                                 : 1 h 47 min
Bit rate                                 : 62 b/s
Count of elements                        : 1437
Stream size                              : 49.0 KiB (0%)
Title                                    : Full
Language                                 : French
Default                                  : No
Forced                                   : No

Text #4
ID                                       : 6
Format                                   : UTF-8
Codec ID                                 : S_TEXT/UTF8
Codec ID/Info                            : UTF-8 Plain Text
Duration                                 : 1 h 48 min
Bit rate                                 : 63 b/s
Count of elements                        : 1516
Stream size                              : 50.2 KiB (0%)
Title                                    : SDH
Language                                 : French
Default                                  : No
Forced                                   : No

Menu
00:00:00.000                             : en:Chapter 01
00:06:44.917                             : en:Chapter 02
00:13:01.708                             : en:Chapter 03
00:20:37.792                             : en:Chapter 04
00:29:47.875                             : en:Chapter 05
00:43:24.333                             : en:Chapter 06
00:54:10.917                             : en:Chapter 07
01:02:23.250                             : en:Chapter 08
01:09:14.375                             : en:Chapter 09
01:16:57.250                             : en:Chapter 10
01:25:24.875                             : en:Chapter 11
01:37:01.708                             : en:Chapter 12
[/url][/url][/url]



                                                                                                                                                                                                        
                                                                                                                                                                                                                                                                                                                                                                                                                                                                                                                                                                                                                                                                                                                                                                                                                                                         b196abb4180c9ac7b82c706364ad7119.zip (74.32 KB, 下载次数: 0)

回复

使用道具 举报

小黑屋|百度云资源论坛 |网站地图

本网站所有资源来自网络,如无意中侵犯了您的权益,请发邮件至 [email protected],立即清除相关链接

GMT+8, 2020-12-3 03:44 , Processed in 0.116110 second(s), 23 queries .

Powered by Discuz! X3.2

© 2001-2013 Comsenz Inc.

快速回复 返回顶部 返回列表