百度云资源论坛

 找回密码
 立即注册
搜索

冰激凌车 The.Ice.Cream.Truck.2017.720p.BluRay.x264-GUACAMOLE 3.72GB

[复制链接]
百度云资源 发表于 2020-11-17 07:18:52 | 显示全部楼层 |阅读模式
帖子完整标题:冰激凌车 The.Ice.Cream.Truck.2017.720p.BluRay.x264-GUACAMOLE 3.72GB


[/url]

◎译  名 冰激凌车
◎片  名 The Ice Cream Truck
◎年  代 2017
◎产  地 美国
◎类  别 喜剧 / 悬疑 / 恐怖
◎语  言 英语
◎上映日期 2017-08-18(美国)
◎IMDb评分  5.2/10 from 1849 users
◎  
◎豆瓣评分 /10 from 0 users
◎ 
◎片  长 96分钟
◎主  演 迪安娜·罗素 Deanna Russo
       Emil Johnsen

◎标  签 美国 | 恐怖 | 美国电影 | 惊悚 | 2017 | 恐怖惊悚悬疑重口血腥 | 冒险 | 诡异

◎简  介

  Mary moves back to her suburban hometown, to find that the suburbs are scarier in more ways than she ever remembered.
Video
ID                                       : 1
Format                                   : AVC
Format/Info                              : Advanced Video Codec
Format profile                           :
Format settings                          : CABAC / 8 Ref Frames
Format settings, CABAC                   : Yes
Format settings, Reference frames        : 8 frames
Codec ID                                 : V_MPEG4/ISO/AVC
Duration                                 : 1 h 27 min
Bit rate                                 : 5 267 kb/s
Width                                    : 1 280 pixels
Height                                   : 538 pixels
Display aspect ratio                     : 2.40:1
Frame rate mode                          : Constant
Frame rate                               : 23.976 (24000/1001/189150) FPS
Color space                              : YUV
Chroma subsampling                       : 4:2:0
Bit depth                                : 8 bits
Scan type                                : Progressive
Bits/(Pixel*Frame)                       : 0.319
Stream size                              : 3.23 GiB (87%)
Writing library                          : x264 core 161 r3027 4121277
Encoding settings                        : cabac=1 / ref=8 / deblock=1:-3:-3 / analyse=0x3:0x133 / me=umh / subme=9 / psy=1 / psy_rd=1.00:0.00 / mixed_ref=1 / me_range=16 / chroma_me=1 / trellis=2 / 8x8dct=1 / cqm=0 / deadzone=21,11 / fast_pskip=0 / chroma_qp_offset=-2 / threads=17 / lookahead_threads=1 / sliced_threads=0 / nr=0 / decimate=1 / interlaced=0 / bluray_compat=0 / constrained_intra=0 / bframes=3 / b_pyramid=2 / b_adapt=2 / b_bias=0 / direct=3 / weightb=1 / open_gop=0 / weightp=2 / keyint=250 / keyint_min=23 / scenecut=40 / intra_refresh=0 / rc_lookahead=60 / rc=crf / mbtree=1 / crf=17.0 / qcomp=0.60 / qpmin=0 / qpmax=69 / qpstep=4 / ip_ratio=1.40 / aq=3:1.00
Default                                  : Yes
Forced                                   : No
Color range                              : Limited
Color primaries                          : BT.709
Transfer characteristics                 : BT.709
Matrix coefficients                      : BT.709

Audio #1
ID                                       : 2
Format                                   : AC-3
Format/Info                              : Audio Coding 3
Commercial name                          : Dolby Digital
Codec ID                                 : A_AC3
Duration                                 : 1 h 27 min
Bit rate mode                            : Constant
Bit rate                                 : 640 kb/s
Channel(s)                               : 6 channels
Channel layout                           : L R C LFE Ls Rs
Sampling rate                            : 48.0 kHz
Frame rate                               : 31.250 FPS (1536 SPF)
Compression mode                         : Lossy
Stream size                              : 402 MiB (11%)
Language                                 : English
Service kind                             : Complete Main
Default                                  : Yes
Forced                                   : No

Audio #2
ID                                       : 3
Format                                   : AAC LC
Format/Info                              : Advanced Audio Codec Low Complexity
Codec ID                                 : A_AAC-2
Duration                                 : 1 h 27 min
Bit rate                                 : 151 kb/s
Channel(s)                               : 2 channels
Channel layout                           : L R
Sampling rate                            : 48.0 kHz
Frame rate                               : 46.875 FPS (1024 SPF)
Compression mode                         : Lossy
Stream size                              : 94.7 MiB (2%)
Title                                    : Commentary
Language                                 : English
Default                                  : No
Forced                                   : No

Text
ID                                       : 4
Format                                   : PGS
Muxing mode                              : zlib
Codec ID                                 : S_HDMV/PGS
Codec ID/Info                            : Picture based subtitle format used on BDs/HD-DVDs
Duration                                 : 1 h 20 min
Bit rate                                 : 22.8 kb/s
Count of elements                        : 1362
Stream size                              : 13.2 MiB (0%)
Title                                    : SDH
Language                                 : German
Default                                  : No
Forced                                   : No

Menu
00:00:00.000                             : en:00:00:00.000
00:08:14.828                             : en:00:08:14.828
00:17:45.731                             : en:00:17:45.731
00:24:14.703                             : en:00:24:14.703
00:34:14.386                             : en:00:34:14.386
00:43:42.411                             : en:00:43:42.411
00:54:10.289                             : en:00:54:10.289
01:03:11.287                             : en:01:03:11.287
01:07:17.242                             : en:01:07:17.242
01:17:45.870                             : en:01:17:45.870
01:22:35.784                             : en:01:22:35.784
01:25:19.531                             : en:01:25:19.531




                                                                                                                                                                                                        
                                                                                                                                                                                                                                                                                                                                                                                                                                                                                                                                                                                                                                                                                                                                                                                                                                                         d3cd96ea93cae230c63458d3365b2a39.zip (37.95 KB, 下载次数: 0)

回复

使用道具 举报

小黑屋|百度云资源论坛 |网站地图

本网站所有资源来自网络,如无意中侵犯了您的权益,请发邮件至 [email protected],立即清除相关链接

GMT+8, 2020-11-29 17:49 , Processed in 0.099162 second(s), 23 queries .

Powered by Discuz! X3.2

© 2001-2013 Comsenz Inc.

快速回复 返回顶部 返回列表