百度云资源论坛

 找回密码
 立即注册
搜索

无敌金刚 The.Six.Million.Dollar.Man.1973.720p.BluRay.x264-GUACAMOLE 2.42GB

[复制链接]
百度云电影 发表于 2020-11-17 07:18:52 | 显示全部楼层 |阅读模式
帖子完整标题:无敌金刚 The.Six.Million.Dollar.Man.1973.720p.BluRay.x264-GUACAMOLE 2.42GB


[/url]

◎译  名 无敌金刚
◎片  名 The Six Million Dollar Man
◎年  代 1973
◎产  地 美国
◎类  别 剧情
◎语  言 英语
◎上映日期 1973-03-07(美国)
◎IMDb评分  7.1/10 from 3806 users
◎  
◎豆瓣评分 /10 from 0 users
◎ 
◎集  数 1
◎片  长 90分钟
◎导  演 理查德·欧文 Richard Irving
◎编  剧 马丁·凯丁 Martin Caidin / 梅尔文·利维 Melvin Levy / 霍华德·罗德曼 Howard Rodman
◎主  演 李·迈杰斯 Lee Majors
       Barbara Anderson
       马丁·鲍尔萨姆 Martin Balsam
       达伦·麦克加文 Darren McGavin

◎标  签 American | 推理 | 剧 | un

◎简  介

  After an astronaut and test pilot is catastrophically mutilated in a test plane crash, he is rebuilt and equipped with nuclear powered bionic limbs and implants.
Video
ID                                       : 1
Format                                   : AVC
Format/Info                              : Advanced Video Codec
Format profile                           :
Format settings                          : CABAC / 8 Ref Frames
Format settings, CABAC                   : Yes
Format settings, Reference frames        : 8 frames
Codec ID                                 : V_MPEG4/ISO/AVC
Duration                                 : 1 h 14 min
Bit rate                                 : 4 290 kb/s
Width                                    : 978 pixels
Height                                   : 720 pixels
Display aspect ratio                     : 4:3
Frame rate mode                          : Constant
Frame rate                               : 23.976 (24000/1001/189150) FPS
Color space                              : YUV
Chroma subsampling                       : 4:2:0
Bit depth                                : 8 bits
Scan type                                : Progressive
Bits/(Pixel*Frame)                       : 0.254
Stream size                              : 2.22 GiB (92%)
Writing library                          : x264 core 161 r3027 4121277
Encoding settings                        : cabac=1 / ref=8 / deblock=1:-3:-3 / analyse=0x3:0x133 / me=umh / subme=9 / psy=1 / psy_rd=1.00:0.00 / mixed_ref=1 / me_range=16 / chroma_me=1 / trellis=2 / 8x8dct=1 / cqm=0 / deadzone=21,11 / fast_pskip=0 / chroma_qp_offset=-2 / threads=22 / lookahead_threads=1 / sliced_threads=0 / nr=0 / decimate=1 / interlaced=0 / bluray_compat=0 / constrained_intra=0 / bframes=3 / b_pyramid=2 / b_adapt=2 / b_bias=0 / direct=3 / weightb=1 / open_gop=0 / weightp=2 / keyint=250 / keyint_min=23 / scenecut=40 / intra_refresh=0 / rc_lookahead=60 / rc=crf / mbtree=1 / crf=17.0 / qcomp=0.60 / qpmin=0 / qpmax=69 / qpstep=4 / ip_ratio=1.40 / aq=3:0.60
Default                                  : Yes
Forced                                   : No
Color range                              : Limited
Color primaries                          : BT.709
Transfer characteristics                 : BT.709
Matrix coefficients                      : BT.709

Audio
ID                                       : 2
Format                                   : FLAC
Format/Info                              : Free Lossless Audio Codec
Codec ID                                 : A_FLAC
Duration                                 : 1 h 14 min
Bit rate mode                            : Variable
Bit rate                                 : 380 kb/s
Channel(s)                               : 2 channels
Channel layout                           : L R
Sampling rate                            : 48.0 kHz
Frame rate                               : 11.719 FPS (4096 SPF)
Bit depth                                : 16 bits
Compression mode                         : Lossless
Stream size                              : 202 MiB (8%)
Writing library                          : libFLAC 1.2.1 (UTC 2007-09-17)
Language                                 : English
Default                                  : Yes
Forced                                   : No

Menu
00:00:00.000                             : en:00:00:00.000
00:07:10.347                             : en:00:07:10.347
00:12:31.042                             : en:00:12:31.042
00:19:21.994                             : en:00:19:21.994
00:24:17.456                             : en:00:24:17.456
00:31:23.673                             : en:00:31:23.673
00:37:19.237                             : en:00:37:19.237
00:43:49.418                             : en:00:43:49.418
00:48:43.087                             : en:00:48:43.087
00:59:58.845                             : en:00:59:58.845
01:05:16.913                             : en:01:05:16.913
01:11:12.393                             : en:01:11:12.393
[/url]



                                                                                                                                                                                                        
                                                                                                                                                                                                                                                                                                                                                                                                                                                                                                                                                                                                                                                                                                                                                                                                                                                         aa3cd5bb6c48e225131fb12bad9db37b.zip (24.93 KB, 下载次数: 0)

回复

使用道具 举报

小黑屋|百度云资源论坛 |网站地图

本网站所有资源来自网络,如无意中侵犯了您的权益,请发邮件至 [email protected],立即清除相关链接

GMT+8, 2020-11-27 08:23 , Processed in 0.113152 second(s), 23 queries .

Powered by Discuz! X3.2

© 2001-2013 Comsenz Inc.

快速回复 返回顶部 返回列表