百度云资源论坛

 找回密码
 立即注册
搜索

耶稣指引你上高速 Jesus.Shows.You.the.Way.to.the.Highway.2019.720p.Blu...

[复制链接]
百度云电影 发表于 2020-11-17 07:18:52 | 显示全部楼层 |阅读模式
帖子完整标题:耶稣指引你上高速 Jesus.Shows.You.the.Way.to.the.Highway.2019.720p.BluRay.x264-GAZER 6.09GB


[/url]

◎译  名 耶稣指引你上高速
◎片  名 Jesus Shows You the Way to the Highway
◎年  代 2019
◎产  地 西班牙,爱沙尼亚,埃塞俄比亚,拉脱维亚,罗马尼亚
◎类  别 喜剧 / 动作 / 科幻 / 惊悚
◎语  言 英语
◎上映日期 2019-07-18(加拿大奇幻电影节)
◎IMDb评分  5.6/10 from 504 users
◎  
◎豆瓣评分 5.8/10 from 414 users
◎ 
◎片  长 83分钟
◎导  演 米格尔·兰索 Miguel Llansó
◎编  剧 米格尔·兰索 Miguel Llansó
◎主  演 丹尼尔·塔德塞 Daniel Tadesse
       Iveta Pole

◎标  签 喜剧 | 西班牙 | 科幻 | 2019 | 奇幻 | 动作 | 西班牙电影 | 惊悚

◎简  介

  CIA探员Palmer与Gagano受命摧毁名为“苏联”的电脑病毒。两人通过VR进入设备,但却发现这次的任务是一个陷阱。
Video
ID                                       : 1
Format                                   : AVC
Format/Info                              : Advanced Video Codec
Format profile                           :
Format settings                          : CABAC / 9 Ref Frames
Format settings, CABAC                   : Yes
Format settings, Reference frames        : 9 frames
Codec ID                                 : V_MPEG4/ISO/AVC
Duration                                 : 1 h 22 min
Bit rate                                 : 9 873 kb/s
Width                                    : 1 280 pixels
Height                                   : 692 pixels
Display aspect ratio                     : 1.85:1
Frame rate mode                          : Constant
Frame rate                               : 23.976 (24000/1001/189150) FPS
Color space                              : YUV
Chroma subsampling                       : 4:2:0
Bit depth                                : 8 bits
Scan type                                : Progressive
Bits/(Pixel*Frame)                       : 0.465
Stream size                              : 5.66 GiB (93%)
Writing library                          : x264 core 161 r3027 4121277
Encoding settings                        : cabac=1 / ref=9 / deblock=1:-3:-3 / analyse=0x3:0x133 / me=umh / subme=10 / psy=1 / psy_rd=1.50:0.15 / mixed_ref=1 / me_range=24 / chroma_me=1 / trellis=2 / 8x8dct=1 / cqm=0 / deadzone=21,11 / fast_pskip=0 / chroma_qp_offset=-3 / threads=22 / lookahead_threads=3 / sliced_threads=0 / nr=0 / decimate=0 / interlaced=0 / bluray_compat=0 / constrained_intra=0 / bframes=8 / b_pyramid=2 / b_adapt=2 / b_bias=0 / direct=3 / weightb=1 / open_gop=0 / weightp=2 / keyint=250 / keyint_min=23 / scenecut=40 / intra_refresh=0 / rc=crf / mbtree=0 / crf=18.8 / qcomp=0.60 / qpmin=0 / qpmax=69 / qpstep=4 / ip_ratio=1.40 / pb_ratio=1.30 / aq=3:0.50
Default                                  : Yes
Forced                                   : No
Color range                              : Limited
Matrix coefficients                      : BT.709

Audio #1
ID                                       : 2
Format                                   : AC-3
Format/Info                              : Audio Coding 3
Commercial name                          : Dolby Digital
Codec ID                                 : A_AC3
Duration                                 : 1 h 22 min
Bit rate mode                            : Constant
Bit rate                                 : 640 kb/s
Channel(s)                               : 6 channels
Channel layout                           : L R C LFE Ls Rs
Sampling rate                            : 48.0 kHz
Frame rate                               : 31.250 FPS (1536 SPF)
Compression mode                         : Lossy
Stream size                              : 375 MiB (6%)
Language                                 : English
Service kind                             : Complete Main
Default                                  : Yes
Forced                                   : No

Audio #2
ID                                       : 3
Format                                   : AAC LC
Format/Info                              : Advanced Audio Codec Low Complexity
Codec ID                                 : A_AAC-2
Duration                                 : 1 h 22 min
Bit rate                                 : 106 kb/s
Channel(s)                               : 2 channels
Channel layout                           : L R
Sampling rate                            : 48.0 kHz
Frame rate                               : 46.875 FPS (1024 SPF)
Compression mode                         : Lossy
Delay relative to video                  : 20 ms
Stream size                              : 62.1 MiB (1%)
Title                                    : Commentary
Language                                 : English
Default                                  : No
Forced                                   : No

Text
ID                                       : 4
Format                                   : PGS
Muxing mode                              : zlib
Codec ID                                 : S_HDMV/PGS
Codec ID/Info                            : Picture based subtitle format used on BDs/HD-DVDs
Duration                                 : 1 h 17 min
Bit rate                                 : 27.9 kb/s
Count of elements                        : 1644
Stream size                              : 15.5 MiB (0%)
Title                                    : SDH
Language                                 : English
Default                                  : No
Forced                                   : No

Menu
00:00:00.000                             : en:Chapter 01
00:06:41.443                             : en:Chapter 02
00:13:33.271                             : en:Chapter 03
00:21:13.230                             : en:Chapter 04
00:28:18.864                             : en:Chapter 05
00:33:58.620                             : en:Chapter 06
00:40:29.969                             : en:Chapter 07
00:47:23.007                             : en:Chapter 08
00:53:40.384                             : en:Chapter 09
01:01:11.751                             : en:Chapter 10
01:08:46.581                             : en:Chapter 11
01:16:15.946                             : en:Chapter 12
[/url]



                                                                                                                                                                                                        
                                                                                                                                                                                                                                                                                                                                                                                                                                                                                                                                                                                                                                                                                                                                                                                                                                                         982038118c81422c3edf384deb313eb6.zip (31.22 KB, 下载次数: 0)

回复

使用道具 举报

小黑屋|百度云资源论坛 |网站地图

本网站所有资源来自网络,如无意中侵犯了您的权益,请发邮件至 [email protected],立即清除相关链接

GMT+8, 2020-11-27 07:40 , Processed in 0.111852 second(s), 23 queries .

Powered by Discuz! X3.2

© 2001-2013 Comsenz Inc.

快速回复 返回顶部 返回列表