百度云资源论坛

 找回密码
 立即注册
搜索

死亡飞车4:混乱之上/死亡飞车4 Death.Race.4.Beyond.Anarchy.2018.108...

[复制链接]
百度云电影 发表于 2020-11-16 10:38:32 | 显示全部楼层 |阅读模式
帖子完整标题:死亡飞车4:混乱之上/死亡飞车4 Death.Race.4.Beyond.Anarchy.2018.1080p.BluRay.x264.DTS-HD.MA.5.1-FGT 9.93GB


[/url]

◎译  名 死亡飞车4:混乱之上/死亡飞车4
◎片  名 Death Race 4: Beyond Anarchy
◎年  代 2018
◎产  地 美国
◎类  别 动作
◎语  言 英语
◎上映日期 2018-01-30(美国)
◎IMDb评分  5.2/10 from 3366 users
◎  
◎豆瓣评分 5.5/10 from 2704 users
◎ 
◎片  长 111分钟
◎导  演 唐·迈克尔·保罗 Don Michael Paul
◎编  剧 保罗·安德森 Paul W.S. Anderson / 托尼·基格里奥 Tony Giglio / 唐·迈克尔·保罗 Don Michael Paul
◎主  演 扎克·麦克格温 Zach McGowan
       弗雷德里克·凯勒 Frederick Koehler
       克里斯汀·马扎诺 Christine Marzano
       张茵 Yennis Cheung
       凯西·克莱尔 Cassie Clare
       露西·阿登 Lucy Aarden
       丹尼·特雷霍 Danny Trejo
       丹尼·格洛弗 Danny Glover
       洛丽娜·卡姆布罗瓦 Lorina Kamburova
       尼古拉斯·阿隆 Nicholas Aaron
       维利斯拉夫·帕夫洛夫 Velislav Pavlov
       卡梅伦·杰克 Cameron Jack
       朱利安·西格尔 Julian Seager
       瓦妮娜·阿里亚斯 Vanina Arias

◎标  签 死亡飞车4 | 暴力 | 动作 | 血腥 | 犯罪 | 赛车 | 飙车 | 美国

◎简  介

  美国失业率飙升,城市沦为犯罪汪洋,政府启动最高法,建高墙围起一占地355万平方米的韦兰德区域安置罪犯。墙内的飙车党以弗兰肯斯坦为首,则玩起了死亡车赛,并通过网络直播成为平民世界的精神领袖。这引起了政府的不满,警察部门意图消灭弗兰肯斯坦的势力和威望,却告失败。新一批罪犯唐纳·吉布森、吉普希·萝丝等人被狱警用直升机投放到韦兰德监狱,他们也参与到死亡飞车比赛中。
Video
ID                                       : 1
Format                                   : AVC
Format/Info                              : Advanced Video Codec
Format profile                           :
Format settings                          : CABAC / 4 Ref Frames
Format settings, CABAC                   : Yes
Format settings, ReFrames                : 4 frames
Codec ID                                 : V_MPEG4/ISO/AVC
Duration                                 : 1 h 50 min
Bit rate                                 : 8 362 kb/s
Width                                    : 1 920 pixels
Height                                   : 1 080 pixels
Display aspect ratio                     : 16:9
Frame rate mode                          : Constant
Frame rate                               : 23.976 (24000/1001/189150) FPS
Color space                              : YUV
Chroma subsampling                       : 4:2:0
Bit depth                                : 8 bits
Scan type                                : Progressive
Bits/(Pixel*Frame)                       : 0.168
Stream size                              : 6.48 GiB (65%)
Title                                    : Death.Race.4.Beyond.Anarchy.2018.1080p.BluRay.x264.DTS-HD.MA.5.1-FGT
Writing library                          : x264 core 157 r2932 303c484
Encoding settings                        : cabac=1 / ref=4 / deblock=1:-3:-3 / analyse=0x3:0x113 / me=umh / subme=8 / psy=1 / psy_rd=1.00:0.00 / mixed_ref=1 / me_range=32 / chroma_me=1 / trellis=2 / 8x8dct=1 / cqm=0 / deadzone=21,11 / fast_pskip=1 / chroma_qp_offset=-2 / threads=24 / lookahead_threads=4 / sliced_threads=0 / nr=0 / decimate=1 / interlaced=0 / bluray_compat=0 / constrained_intra=0 / bframes=3 / b_pyramid=2 / b_adapt=2 / b_bias=0 / direct=3 / weightb=1 / open_gop=0 / weightp=2 / keyint=240 / keyint_min=24 / scenecut=40 / intra_refresh=0 / rc_lookahead=50 / rc=2pass / mbtree=1 / bitrate=8362 / ratetol=1.0 / qcomp=0.60 / qpmin=0 / qpmax=69 / qpstep=4 / cplxblur=20.0 / qblur=0.5 / ip_ratio=1.40 / aq=3:0.80
Language                                 : English
Default                                  : Yes
Forced                                   : No

Audio
ID                                       : 2
Format                                   : DTS XLL
Format/Info                              : Digital Theater Systems
Commercial name                          : DTS-HD Master Audio
Codec ID                                 : A_DTS
Duration                                 : 1 h 50 min
Bit rate mode                            : Variable
Bit rate                                 : 4 424 kb/s
Channel(s)                               : 6 channels
Channel layout                           : C L R Ls Rs LFE
Sampling rate                            : 48.0 kHz
Frame rate                               : 93.750 FPS (512 SPF)
Bit depth                                : 24 bits
Compression mode                         : Lossless
Stream size                              : 3.43 GiB (35%)
Title                                    : Death.Race.4.Beyond.Anarchy.2018.1080p.BluRay.x264.DTS-HD.MA.5.1-FGT
Language                                 : English
Default                                  : Yes
Forced                                   : No

Text #1
ID                                       : 3
Format                                   : UTF-8
Codec ID                                 : S_TEXT/UTF8
Codec ID/Info                            : UTF-8 Plain Text
Duration                                 : 1 h 44 min
Bit rate                                 : 37 b/s
Count of elements                        : 858
Stream size                              : 28.7 KiB (0%)
Title                                    : English-SRT
Language                                 : English
Default                                  : Yes
Forced                                   : No

Text #2
ID                                       : 4
Format                                   : UTF-8
Codec ID                                 : S_TEXT/UTF8
Codec ID/Info                            : UTF-8 Plain Text
Duration                                 : 1 h 46 min
Bit rate                                 : 41 b/s
Count of elements                        : 1046
Stream size                              : 32.3 KiB (0%)
Title                                    : English-SDH-SRT
Language                                 : English
Default                                  : No
Forced                                   : No

Text #3
ID                                       : 5
Format                                   : PGS
Muxing mode                              : zlib
Codec ID                                 : S_HDMV/PGS
Codec ID/Info                            : Picture based subtitle format used on BDs/HD-DVDs
Duration                                 : 1 h 46 min
Bit rate                                 : 28.2 kb/s
Count of elements                        : 2094
Stream size                              : 21.5 MiB (0%)
Title                                    : English-PGS
Language                                 : English
Default                                  : No
Forced                                   : No

Text #4
ID                                       : 6
Format                                   : PGS
Muxing mode                              : zlib
Codec ID                                 : S_HDMV/PGS
Codec ID/Info                            : Picture based subtitle format used on BDs/HD-DVDs
Duration                                 : 1 h 50 min
Bit rate                                 : 22.9 kb/s
Count of elements                        : 1680
Stream size                              : 18.1 MiB (0%)
Title                                    : French-PGS
Language                                 : French
Default                                  : No
Forced                                   : No

Text #5
ID                                       : 7
Format                                   : PGS
Muxing mode                              : zlib
Codec ID                                 : S_HDMV/PGS
Codec ID/Info                            : Picture based subtitle format used on BDs/HD-DVDs
Duration                                 : 1 h 50 min
Bit rate                                 : 23.7 kb/s
Count of elements                        : 1718
Stream size                              : 18.7 MiB (0%)
Title                                    : Spanish-PGS
Language                                 : Spanish
Default                                  : No
Forced                                   : No

Menu
00:00:00.000                             : en:Chapter 01
00:08:12.241                             : en:Chapter 02
00:15:38.437                             : en:Chapter 03
00:20:44.910                             : en:Chapter 04
00:25:46.336                             : en:Chapter 05
00:29:20.967                             : en:Chapter 06
00:35:49.564                             : en:Chapter 07
00:41:29.111                             : en:Chapter 08
00:47:44.403                             : en:Chapter 09
00:52:28.436                             : en:Chapter 10
00:56:38.186                             : en:Chapter 11
01:00:13.443                             : en:Chapter 12
01:07:00.641                             : en:Chapter 13
01:12:50.199                             : en:Chapter 14
01:17:51.833                             : en:Chapter 15
01:21:55.952                             : en:Chapter 16
01:28:38.604                             : en:Chapter 17
01:32:56.487                             : en:Chapter 18
01:38:02.418                             : en:Chapter 19
01:45:55.766                             : en:Chapter 20
[/url][/url][/url]



                                                                                                                                                                                                        
                                                                                                                                                                                                                                                                                                                                                                                                                                                                                                                                                                                                                                                                                                                                                                                                                                                         182bc41642a6692050a13a9636b47f01.zip (100 KB, 下载次数: 0)

回复

使用道具 举报

小黑屋|百度云资源论坛 |网站地图

本网站所有资源来自网络,如无意中侵犯了您的权益,请发邮件至 [email protected],立即清除相关链接

GMT+8, 2020-12-3 02:00 , Processed in 0.107401 second(s), 23 queries .

Powered by Discuz! X3.2

© 2001-2013 Comsenz Inc.

快速回复 返回顶部 返回列表