百度云资源论坛

 找回密码
 立即注册
搜索

八年级 Eighth.Grade.2018.1080p.BluRay.x264.DTS-HD.MA.5.1-FGT 8.81GB

[复制链接]
百度云电影 发表于 2020-11-16 10:38:32 | 显示全部楼层 |阅读模式
帖子完整标题:八年级 Eighth.Grade.2018.1080p.BluRay.x264.DTS-HD.MA.5.1-FGT 8.81GB


[/url]

◎译  名 八年级/8th Grade/The Coolest Girl in the World
◎片  名 Eighth Grade
◎年  代 2018
◎产  地 美国
◎类  别 喜剧
◎语  言 英语
◎上映日期 2018-01-19(圣丹斯电影节) / 2018-08-03(美国)
◎IMDb评分  7.4/10 from 60500 users
◎  
◎豆瓣评分 6.6/10 from 8536 users
◎ 
◎片  长 94分钟
◎导  演 博·伯翰 Bo Burnham
◎编  剧 博·伯翰 Bo Burnham
◎主  演 艾尔西·费舍尔 Elsie Fisher
       约什·汉密尔顿 Josh Hamilton
       艾米丽·罗宾森 Emily Robinson
       杰克·莱恩 Jake Ryan
       丹尼尔·祖尔格哈德利 Daniel Zolghadri
       弗莱德·赫钦格 Fred Hechinger
       艾曼尼·刘易斯 Imani Lewis
       卢克·普拉尔 Luke Prael
       凯瑟琳·奥利维雷 Catherine Oliviere
       诺拉·姆林斯 Nora Mullins
       蜜西·雅格 Missy Yager
       格雷戈·克罗 Greg Crowe
       弗兰克·迪尔 Frank Deal
       黛博拉·安格 Deborah Unger
       威廉·温施 William Wunsch
       丹·陈 Dan Chen
       汤姆·斯特拉特福 Tom Stratford
       J·塔克·史密斯 J. Tucker Smith
       沙察·捷米罗夫 Shacha Temirov
       玛格丽特·斯廷普森 Marguerite Stimpson
       凯文·R·弗里 Kevin R. Free
       娜塔莉·卡特 Natalie Carter
       大卫·石 David Shih
       托马斯·约翰·奥雷利 Thomas John O'Reilly

◎标  签 青春 | 成长 | 美国 | 校园 | 2018 | 喜剧 | 美国电影 | 独立电影

◎简  介

  故事讲述13岁的凯拉(艾尔西·费舍尔 饰)在初中的最后一周,所经历的青春故事...

◎获奖情况

  第76届金球奖 ?(2019)
  电影类音乐/喜剧片最佳女主角(提名) 艾尔西·费舍尔
  
  第34届圣丹斯电影节 ?(2018)
  评审团大奖剧情片(提名) 博·伯翰
  
  第71届美国导演工会奖 ?(2019)
  最佳新人导演奖 博·伯翰
  
  第71届美国编剧工会奖 ?(2019)
  电影奖最佳原创剧本 博·伯翰
  
  第84届纽约影评人协会奖 ?(2018)
  最佳处女作
  
  第90届美国国家评论协会奖 ?(2018)
  最佳导演处女作 博·伯翰
  年度佳片
  
  第24届美国评论家选择电影奖 ?(2019)
  最佳青少年演员 艾尔西·费舍尔
  喜剧片最佳女主角(提名) 艾尔西·费舍尔
  最佳原创剧本(提名) 博·伯翰
  
  第34届美国独立精神奖 ?(2019)
  最佳影片(提名)
  最佳女主角(提名) 艾尔西·费舍尔
  最佳男配角(提名) 约什·汉密尔顿
  最佳处女作剧本 博·伯翰
  
  第28届哥谭独立电影奖 ?(2018)
  年度突破演员 艾尔西·费舍尔
  最佳突破导演奖 博·伯翰
  
  第19届美国电影学会奖 ?(2018)
  年度佳片
  
  第23届金卫星奖 ?(2019)
  电影部门喜剧/音乐片最佳女主角(提名) 艾尔西·费舍尔
  电影部门最佳独立片(提名)
  电影部门最佳原创剧本(提名) 博·伯翰
  
  第17届华盛顿影评人协会奖 ?(2018)
  最佳原创剧本(提名) 博·伯翰
  最佳青少年表演 艾尔西·费舍尔
  
  第39届波士顿影评人协会奖 ?(2018)
  最佳处女作 博·伯翰
  
  第31届芝加哥影评人协会奖 ?(2018)
  最佳原创剧本(提名) 博·伯翰
  最具潜力演员 艾尔西·费舍尔
  最具潜力导演(提名) 博·伯翰
  
  第17届旧金山影评人协会奖 ?(2018)
  最佳原创剧本(提名) 博·伯翰
  
  第18届温哥华影评人协会奖 ?(2018)
  最佳剧本(提名) 博·伯翰
  
  第52届堪萨斯影评人协会奖 ?(2018)
  最佳原创剧本(提名)
  
  第18届凤凰城影评人协会奖 ?(2018)
  最具突破表演 艾尔西·费舍尔
  最佳青年女演员 艾尔西·费舍尔
  
  第12届底特律影评人协会奖 ?(2018)
  最佳影片
  最佳男配角 约什·汉密尔顿
  
  第3届亚特兰大影评人协会奖 ?(2018)
  十佳影片
  突破表演奖 艾尔西·费舍尔
  
  第22届美国在线影评人协会奖 ?(2019)
  最佳影片(提名)
  最佳原创剧本(提名) 博·伯翰
  最佳新导演(提名) 博·伯翰
Video
ID                                       : 1
Format                                   : AVC
Format/Info                              : Advanced Video Codec
Format profile                           :
Format settings                          : CABAC / 4 Ref Frames
Format settings, CABAC                   : Yes
Format settings, RefFrames               : 4 frames
Codec ID                                 : V_MPEG4/ISO/AVC
Duration                                 : 1 h 33 min
Bit rate                                 : 10.2 Mb/s
Width                                    : 1 920 pixels
Height                                   : 1 040 pixels
Display aspect ratio                     : 1.85:1
Frame rate mode                          : Constant
Frame rate                               : 23.976 (24000/1001/189150) FPS
Color space                              : YUV
Chroma subsampling                       : 4:2:0
Bit depth                                : 8 bits
Scan type                                : Progressive
Bits/(Pixel*Frame)                       : 0.213
Stream size                              : 6.66 GiB (76%)
Title                                    : Eighth.Grade.2018.1080p.BluRay.x264.DTS-HD.MA.5.1-FGT
Writing library                          : x264 core 157 r2932 303c484
Encoding settings                        : cabac=1 / ref=4 / deblock=1:-3:-3 / analyse=0x3:0x113 / me=umh / subme=8 / psy=1 / psy_rd=1.00:0.00 / mixed_ref=1 / me_range=16 / chroma_me=1 / trellis=1 / 8x8dct=1 / cqm=0 / deadzone=21,11 / fast_pskip=1 / chroma_qp_offset=-2 / threads=24 / lookahead_threads=4 / sliced_threads=0 / nr=0 / decimate=1 / interlaced=0 / bluray_compat=0 / constrained_intra=0 / bframes=3 / b_pyramid=2 / b_adapt=1 / b_bias=0 / direct=3 / weightb=1 / open_gop=0 / weightp=2 / keyint=250 / keyint_min=23 / scenecut=40 / intra_refresh=0 / rc_lookahead=50 / rc=2pass / mbtree=1 / bitrate=10187 / ratetol=1.0 / qcomp=0.60 / qpmin=0 / qpmax=69 / qpstep=4 / cplxblur=20.0 / qblur=0.5 / ip_ratio=1.40 / aq=1:1.00
Language                                 : English
Default                                  : Yes
Forced                                   : No

Audio
ID                                       : 2
Format                                   : DTS XLL
Format/Info                              : Digital Theater Systems
Commercial name                          : DTS-HD Master Audio
Codec ID                                 : A_DTS
Duration                                 : 1 h 33 min
Bit rate mode                            : Variable
Bit rate                                 : 3 228 kb/s
Channel(s)                               : 6 channels
Channel layout                           : C L R Ls Rs LFE
Sampling rate                            : 48.0 kHz
Frame rate                               : 93.750 FPS (512 SPF)
Bit depth                                : 24 bits
Compression mode                         : Lossless
Stream size                              : 2.11 GiB (24%)
Title                                    : Eighth.Grade.2018.1080p.BluRay.x264.DTS-HD.MA.5.1-FGT
Language                                 : English
Default                                  : Yes
Forced                                   : No

Text #1
ID                                       : 3
Format                                   : UTF-8
Codec ID                                 : S_TEXT/UTF8
Codec ID/Info                            : UTF-8 Plain Text
Duration                                 : 1 h 30 min
Bit rate                                 : 71 b/s
Count of elements                        : 1451
Stream size                              : 47.0 KiB (0%)
Title                                    : English-SRT
Language                                 : English
Default                                  : Yes
Forced                                   : No

Text #2
ID                                       : 4
Format                                   : PGS
Muxing mode                              : zlib
Codec ID                                 : S_HDMV/PGS
Codec ID/Info                            : Picture based subtitle format used on BDs/HD-DVDs
Duration                                 : 1 h 30 min
Bit rate                                 : 47.9 kb/s
Count of elements                        : 2744
Stream size                              : 31.0 MiB (0%)
Title                                    : English-PGS
Language                                 : English
Default                                  : No
Forced                                   : No

Text #3
ID                                       : 5
Format                                   : PGS
Muxing mode                              : zlib
Codec ID                                 : S_HDMV/PGS
Codec ID/Info                            : Picture based subtitle format used on BDs/HD-DVDs
Duration                                 : 1 h 30 min
Bit rate                                 : 38.4 kb/s
Count of elements                        : 2578
Stream size                              : 24.8 MiB (0%)
Title                                    : Spanish-PGS
Language                                 : Spanish
Default                                  : No
Forced                                   : No

Menu
00:00:00.000                             : en:Chapter 01
00:05:44.635                             : en:Chapter 02
00:11:00.534                             : en:Chapter 03
00:16:20.854                             : en:Chapter 04
00:19:55.986                             : en:Chapter 05
00:27:18.094                             : en:Chapter 06
00:33:08.444                             : en:Chapter 07
00:39:54.809                             : en:Chapter 08
00:43:08.877                             : en:Chapter 09
00:49:21.375                             : en:Chapter 10
00:54:41.152                             : en:Chapter 11
01:01:44.701                             : en:Chapter 12
01:09:07.393                             : en:Chapter 13
01:13:05.881                             : en:Chapter 14
01:15:39.076                             : en:Chapter 15
01:22:23.188                             : en:Chapter 16
[/url][/url]



                                                                                                                                                                                                        
                                                                                                                                                                                                                                                                                                                                                                                                                                                                                                                                                                                                                                                                                                                                                                                                                                                         64a359e18f23b5b209228734cfe4219b.zip (88.73 KB, 下载次数: 0)

回复

使用道具 举报

小黑屋|百度云资源论坛 |网站地图

本网站所有资源来自网络,如无意中侵犯了您的权益,请发邮件至 [email protected],立即清除相关链接

GMT+8, 2020-12-3 03:28 , Processed in 0.108084 second(s), 23 queries .

Powered by Discuz! X3.2

© 2001-2013 Comsenz Inc.

快速回复 返回顶部 返回列表