百度云资源论坛

 找回密码
 立即注册
搜索

蚁人2:黄蜂女现身 Ant-Man.and.the.Wasp.2018.1080p.BluRay.x264.DTS-HD.MA...

[复制链接]
百度云电影 发表于 2020-11-16 10:38:32 | 显示全部楼层 |阅读模式
帖子完整标题:蚁人2:黄蜂女现身 Ant-Man.and.the.Wasp.2018.1080p.BluRay.x264.DTS-HD.MA.7.1-FGT 11.45GB


[/url]

◎译  名 蚁人2:黄蜂女现身/Ant-Man 2/蚁人2/蚁人与黄蜂女/蚁侠2:黄蜂女现身(港)
◎片  名 Ant-Man and the Wasp
◎年  代 2018
◎产  地 美国
◎类  别 动作 / 科幻 / 冒险
◎语  言 英语
◎上映日期 2018-07-06(美国) / 2018-08-24(中国大陆)
◎IMDb评分  7.1/10 from 301145 users
◎  
◎豆瓣评分 7.3/10 from 393565 users
◎ 
◎片  长 118分钟
◎导  演 佩顿·里德 Peyton Reed
◎编  剧 克里斯·麦克纳 Chris McKenna / 埃里克·萨默斯 Erik Sommers / 保罗·路德 Paul Rudd / 安德鲁·贝伦 Andrew Barrer / 加百利·法拉利 Gabriel Ferrari / 亚当·麦凯 Adam McKay
◎主  演 保罗·路德 Paul Rudd
       伊万杰琳·莉莉 Evangeline Lilly
       迈克尔·佩纳 Michael Pe?a
       汉娜·乔恩-卡门 Hannah John-Kamen
       沃尔顿·戈金斯 Walton Goggins
       鲍比·坎纳瓦尔 Bobby Cannavale
       朱迪·格雷尔 Judy Greer
       T.I.
       大卫·达斯马齐连 David Dastmalchian
       艾比·莱德·弗特森 Abby Ryder Fortson
       兰道尔·朴 Randall Park
       米歇尔·菲佛 Michelle Pfeiffer
       劳伦斯·菲什伯恩 Laurence Fishburne
       迈克尔·道格拉斯 Michael Douglas
       戈兰·卡斯蒂克 Goran Kostic
       罗布·阿切尔 Rob Archer
       肖恩·克莱尔 Sean Kleier
       本·戴维斯 Ben Davis
       迈克尔·瑟沃瑞斯 Michael Cerveris
       达克斯·格里芬 Dax Griffin
       海莉·洛维特 Hayley Lovitt
       玛德琳·麦格劳 Madeleine McGraw
       蒂姆·海德克 Tim Heidecker
       布莱恩·赫斯基 Brian Huskey
       朱莉娅·维拉 Julia Vera
       布莱恩·卢戈 Bryan Lugo
       托里·沃格尔 Torrey Vogel
       汤姆·夏普林 Tom Scharpling
       斯坦·李 Stan Lee
       约瑟夫·阿梅 Joseph Amey
       安迪·阿尼斯 Andy Arness
       威廉·W·巴伯 William W. Barbour
       玛塞拉·布拉吉奥 Marcella Bragio
       塞尔吉奥·布里奥内斯 Sergio Briones
       乔·布卡罗三世 Joe Bucaro III
       蒂莫西·卡尔 Timothy Carr
       贾迈尔·钱伯斯 Jamel Chambers
       扎卡里·卡伯森 Zachary Culbertson
       雅各布·埃文斯 Jacob Evans
       米歇尔·方 Michelle Fang
       盖尔·甘布尔 Gail Gamble
       克里斯·加恩 Chris Gann
       约翰·盖蒂尔 John Gettier
       杰克·汉森 Jake Hanson
       卡茜·亨德利 Cassie Hendry
       罗伯特·廷斯利 Robert Tinsley
       查尔斯·胡斯托 Charles Justo
       小戴维·M·桑多瓦尔 David M Sandoval Jr.
       安妮-玛丽·奥尔森 Anne-Marie Olsen
       黛布拉·诺顿-米勒 Debra Norton-Miller

◎标  签 漫威 | 超级英雄 | 科幻 | 美国 | 搞笑 | 2018 | 动作 | 漫画改编

◎简  介

  由于在“内战”中站到了美国队长一方,蚁人斯科特·朗(保罗·路德 Paul Rudd 饰)遭到了FBI的禁足惩罚。眼看离真正的自由还有几天功夫,偏偏麻烦找上门来。原来初代蚁人汉克·皮姆(迈克尔·道格拉斯 Michael Douglas 饰)通过研究发现,他的妻子黄蜂女(米歇尔·菲佛 Michelle Pfeiffer 饰)一定还活在量子领域,而斯科特是能够将妻子带回现实世界的唯一希望。不由分说,汉克的女儿霍普(伊万杰琳·莉莉 Nicole Lilly 饰)将斯科特带出房间。此后不久,他们不仅要躲避FBI的纠缠,更要提防来自神秘势力的袭击,而“幽灵”的出现更将斯科特等人带向前所未有的混乱当中。
  
  斯科特能否顺利获得自由?初代黄蜂女是否还存活在量子领域的某处?

◎获奖情况

  第25届美国演员工会奖 ?(2019)
  电影最佳特技群戏(提名)
  
  第17届美国视觉效果协会奖 ?(2019)
  最佳真人电影CG背景(提名)
  
  第5届豆瓣电影年度榜单 ?(2018)
  评分最高的科幻/动作片(提名)
  
  第4届豆瓣电影年度榜单 ?(2017)
  最值得期待的外语电影(提名)
Video
ID                                       : 1
Format                                   : AVC
Format/Info                              : Advanced Video Codec
Format profile                           :
Format settings                          : CABAC / 5 Ref Frames
Format settings, CABAC                   : Yes
Format settings, Reference frames        : 5 frames
Codec ID                                 : V_MPEG4/ISO/AVC
Duration                                 : 1 h 58 min
Bit rate                                 : 9 091 kb/s
Width                                    : 1 920 pixels
Height                                   : 808 pixels
Display aspect ratio                     : 2.40:1
Frame rate mode                          : Constant
Frame rate                               : 23.976 FPS
Color space                              : YUV
Chroma subsampling                       : 4:2:0
Bit depth                                : 8 bits
Scan type                                : Progressive
Bits/(Pixel*Frame)                       : 0.244
Stream size                              : 7.50 GiB (65%)
Title                                    : Ant-Man.and.the.Wasp.2018.1080p.BluRay.x264.DTS-HD.MA.7.1-FGT
Writing library                          : x264 core 157 r2932 303c484
Encoding settings                        : cabac=1 / ref=5 / deblock=1:0:0 / analyse=0x3:0x133 / me=umh / subme=7 / psy=1 / psy_rd=1.00:0.00 / mixed_ref=1 / me_range=16 / chroma_me=1 / trellis=1 / 8x8dct=1 / cqm=0 / deadzone=21,11 / fast_pskip=0 / chroma_qp_offset=-2 / threads=25 / lookahead_threads=4 / sliced_threads=0 / nr=0 / decimate=1 / interlaced=0 / bluray_compat=0 / constrained_intra=0 / bframes=3 / b_pyramid=2 / b_adapt=1 / b_bias=0 / direct=1 / weightb=1 / open_gop=0 / weightp=2 / keyint=250 / keyint_min=23 / scenecut=40 / intra_refresh=0 / rc_lookahead=40 / rc=2pass / mbtree=1 / bitrate=9091 / ratetol=1.0 / qcomp=0.60 / qpmin=0 / qpmax=69 / qpstep=4 / cplxblur=20.0 / qblur=0.5 / ip_ratio=1.40 / aq=1:1.00
Language                                 : English
Default                                  : Yes
Forced                                   : No

Audio
ID                                       : 2
Format                                   : DTS XLL
Format/Info                              : Digital Theater Systems
Commercial name                          : DTS-HD Master Audio
Codec ID                                 : A_DTS
Duration                                 : 1 h 58 min
Bit rate mode                            : Variable
Bit rate                                 : 4 788 kb/s
Channel(s)                               : 8 channels
Channel layout                           : C L R LFE Lb Rb Lss Rss
Sampling rate                            : 48.0 kHz
Frame rate                               : 93.750 FPS (512 SPF)
Bit depth                                : 24 bits
Compression mode                         : Lossless
Stream size                              : 3.95 GiB (34%)
Title                                    : Ant-Man.and.the.Wasp.2018.1080p.BluRay.x264.DTS-HD.MA.7.1-FGT
Language                                 : English
Default                                  : Yes
Forced                                   : No

Text
ID                                       : 3
Format                                   : UTF-8
Codec ID                                 : S_TEXT/UTF8
Codec ID/Info                            : UTF-8 Plain Text
Duration                                 : 1 h 50 min
Bit rate                                 : 65 b/s
Count of elements                        : 1805
Stream size                              : 53.0 KiB (0%)
Title                                    : English-SRT
Language                                 : English
Default                                  : Yes
Forced                                   : No

Menu
00:00:00.000                             : en:00:00:00.000
00:04:03.034                             : en:00:04:03.034
00:10:16.407                             : en:00:10:16.407
00:13:39.861                             : en:00:13:39.861
00:21:25.451                             : en:00:21:25.451
00:29:07.829                             : en:00:29:07.829
00:36:09.084                             : en:00:36:09.084
00:40:56.579                             : en:00:40:56.579
00:50:17.431                             : en:00:50:17.431
00:58:59.077                             : en:00:58:59.077
01:04:56.434                             : en:01:04:56.434
01:12:54.287                             : en:01:12:54.287
01:18:32.124                             : en:01:18:32.124
01:24:44.913                             : en:01:24:44.913
01:29:47.340                             : en:01:29:47.340
01:36:16.270                             : en:01:36:16.270
01:43:35.334                             : en:01:43:35.334
01:46:59.830                             : en:01:46:59.830
[/url][/url]



                                                                                                                                                                                                        
                                                                                                                                                                                                                                                                                                                                                                                                                                                                                                                                                                                                                                                                                                                                                                                                                                                         7fc3c46b4c553bd897111ac8ade7cb7c.zip (57.94 KB, 下载次数: 0)

回复

使用道具 举报

小黑屋|百度云资源论坛 |网站地图

本网站所有资源来自网络,如无意中侵犯了您的权益,请发邮件至 [email protected],立即清除相关链接

GMT+8, 2020-12-3 02:40 , Processed in 0.108878 second(s), 23 queries .

Powered by Discuz! X3.2

© 2001-2013 Comsenz Inc.

快速回复 返回顶部 返回列表