百度云资源论坛

 找回密码
 立即注册
搜索

别担心他不会走远的/别急他不会走很远的 Dont.Worry.He.Wont.Ge...

[复制链接]
百度云电影 发表于 2020-11-16 10:38:32 | 显示全部楼层 |阅读模式
帖子完整标题:别担心他不会走远的/别急他不会走很远的 Dont.Worry.He.Wont.Get.Far.On.Foot.2018.1080p.BluRay.x264.DTS-HD.MA.5.1-FGT 10.42GB


[/url]

◎译  名 别担心,他不会走远的/别急,他不会走很远的/别急,他的脚走不了/笑画人生(台)/近人勿念/酒过漫画人生(港)
◎片  名 Don't Worry, He Won't Get Far on Foot
◎年  代 2018
◎产  地 法国,美国
◎类  别 剧情 / 传记
◎语  言 英语
◎上映日期 2018-01-19(圣丹斯电影节) / 2018-07-13(美国)
◎IMDb评分  6.9/10 from 21286 users
◎  
◎豆瓣评分 6.1/10 from 851 users
◎ 
◎片  长 114分钟
◎导  演 格斯·范·桑特 Gus Van Sant
◎编  剧 格斯·范·桑特 Gus Van Sant / 杰克·吉布森 Jack Gibson / 威廉·安德鲁·伊特曼 William Andrew Eatman / 约翰·卡拉汉 John Callahan
◎主  演 华金·菲尼克斯 Joaquin Phoenix
       鲁妮·玛拉 Rooney Mara
       乔纳·希尔 Jonah Hill
       杰克·布莱克 Jack Black
       贝丝·迪托 Beth Ditto
       奥莉维亚·汉密尔顿 Olivia Hamilton
       乌多·基尔 Udo Kier
       金·戈顿 Kim Gordon
       凯瑞·布朗斯汀 Carrie Brownstein
       埃米里奥·瑞弗拉 Emilio Rivera
       瑞贝卡·瑞滕豪斯 Rebecca Rittenhouse
       马克·韦伯 Mark Webber
       诺兰·格罗斯 Nolan Gross
       杰西卡·婕德·安德烈什 Jessica Andres
       桑尼·苏尔季克 Sunny Suljic
       周英华 Michael Chow
       Ethan Michael Mora
       Angelique Rivera

◎标  签 美国 | 传记 | 2018 | 剧情 | 文艺 | 柏林电影节 | 真人真事改编 | 独立电影

◎简  介

  格斯·范·桑特和杰昆·菲尼克斯时隔11年再度合作,欲将四肢瘫痪的漫画家约翰·卡拉汉(Joe Callahan)的故事搬上大银幕。卡拉汉12岁就嗜酒成性并滥用药物,21岁的在酒后遭遇车祸四肢瘫痪,之后他开始重建他的生活,最终成为了一位不断超越身体局限的漫画家。

◎获奖情况

  第68届柏林国际电影节 ?(2018)
  金熊奖最佳影片(提名) 格斯·范·桑特
  泰迪熊奖最佳电影(提名) 格斯·范·桑特
Video
ID                                       : 1
Format                                   : AVC
Format/Info                              : Advanced Video Codec
Format profile                           :
Format settings                          : CABAC / 4 Ref Frames
Format settings, CABAC                   : Yes
Format settings, ReFrames                : 4 frames
Codec ID                                 : V_MPEG4/ISO/AVC
Duration                                 : 1 h 54 min
Bit rate                                 : 9 441 kb/s
Width                                    : 1 920 pixels
Height                                   : 1 080 pixels
Display aspect ratio                     : 16:9
Frame rate mode                          : Constant
Frame rate                               : 23.976 (24000/1001/189150) FPS
Color space                              : YUV
Chroma subsampling                       : 4:2:0
Bit depth                                : 8 bits
Scan type                                : Progressive
Bits/(Pixel*Frame)                       : 0.190
Stream size                              : 7.54 GiB (72%)
Writing library                          : x264 core 157 r2932 303c484
Encoding settings                        : cabac=1 / ref=4 / deblock=1:-3:-3 / analyse=0x3:0x113 / me=umh / subme=8 / psy=1 / psy_rd=1.00:0.00 / mixed_ref=1 / me_range=16 / chroma_me=1 / trellis=1 / 8x8dct=1 / cqm=0 / deadzone=21,11 / fast_pskip=1 / chroma_qp_offset=-2 / threads=24 / lookahead_threads=4 / sliced_threads=0 / nr=0 / decimate=1 / interlaced=0 / bluray_compat=0 / constrained_intra=0 / bframes=3 / b_pyramid=2 / b_adapt=1 / b_bias=0 / direct=3 / weightb=1 / open_gop=0 / weightp=2 / keyint=250 / keyint_min=23 / scenecut=40 / intra_refresh=0 / rc_lookahead=50 / rc=2pass / mbtree=1 / bitrate=9441 / ratetol=1.0 / qcomp=0.60 / qpmin=0 / qpmax=69 / qpstep=4 / cplxblur=20.0 / qblur=0.5 / ip_ratio=1.40 / aq=1:1.00
Language                                 : English
Default                                  : Yes
Forced                                   : No

Audio
ID                                       : 2
Format                                   : DTS
Format/Info                              : Digital Theater Systems
Format profile                           : MA / Core
Codec ID                                 : A_DTS
Duration                                 : 1 h 54 min
Bit rate mode                            : Variable / Constant
Bit rate                                 : 3 564 kb/s / 1 509 kb/s
Channel(s)                               : 6 channels
Channel positions                        : Front: L C R, Side: L R, LFE
Sampling rate                            : 48.0 kHz
Frame rate                               : 93.750 FPS (512 SPF)
Bit depth                                : 24 bits
Compression mode                         : Lossless / Lossy
Stream size                              : 2.85 GiB (27%)
Title                                    : Dont.Worry.He.Wont.Get.Far.On.Foot.2018.1080p.BluRay.REMUX.AVC.DTS-HD.MA.5.1-FGT
Language                                 : English
Default                                  : Yes
Forced                                   : No

Text #1
ID                                       : 3
Format                                   : UTF-8
Codec ID                                 : S_TEXT/UTF8
Codec ID/Info                            : UTF-8 Plain Text
Duration                                 : 1 h 53 min
Bit rate                                 : 67 b/s
Count of elements                        : 1775
Stream size                              : 56.0 KiB (0%)
Title                                    : English-SRT
Language                                 : English
Default                                  : Yes
Forced                                   : No

Text #2
ID                                       : 4
Format                                   : PGS
Muxing mode                              : zlib
Codec ID                                 : S_HDMV/PGS
Codec ID/Info                            : Picture based subtitle format used on BDs/HD-DVDs
Duration                                 : 1 h 53 min
Bit rate                                 : 51.6 kb/s
Count of elements                        : 3892
Stream size                              : 41.7 MiB (0%)
Title                                    : English-PGS
Language                                 : English
Default                                  : No
Forced                                   : No

Text #3
ID                                       : 5
Format                                   : PGS
Muxing mode                              : zlib
Codec ID                                 : S_HDMV/PGS
Codec ID/Info                            : Picture based subtitle format used on BDs/HD-DVDs
Duration                                 : 1 h 48 min
Bit rate                                 : 44.1 kb/s
Count of elements                        : 3466
Stream size                              : 34.2 MiB (0%)
Title                                    : Spanish-PGS
Language                                 : Spanish
Default                                  : No
Forced                                   : No

Menu
00:00:00.000                             : en:Chapter 01
00:07:49.760                             : en:Chapter 02
00:13:09.622                             : en:Chapter 03
00:21:26.076                             : en:Chapter 04
00:27:13.590                             : en:Chapter 05
00:35:06.479                             : en:Chapter 06
00:42:30.673                             : en:Chapter 07
00:48:53.555                             : en:Chapter 08
00:56:36.309                             : en:Chapter 09
01:02:30.496                             : en:Chapter 10
01:09:25.953                             : en:Chapter 11
01:17:00.282                             : en:Chapter 12
01:23:36.636                             : en:Chapter 13
01:31:06.544                             : en:Chapter 14
01:37:58.747                             : en:Chapter 15
01:46:20.832                             : en:Chapter 16
[/url][/url][/url]



                                                                                                                                                                                                        
                                                                                                                                                                                                                                                                                                                                                                                                                                                                                                                                                                                                                                                                                                                                                                                                                                                         a36e9a9039042170080e8dbe7ef7b37b.zip (52.85 KB, 下载次数: 0)

回复

使用道具 举报

小黑屋|百度云资源论坛 |网站地图

本网站所有资源来自网络,如无意中侵犯了您的权益,请发邮件至 [email protected],立即清除相关链接

GMT+8, 2020-12-3 01:58 , Processed in 0.098501 second(s), 23 queries .

Powered by Discuz! X3.2

© 2001-2013 Comsenz Inc.

快速回复 返回顶部 返回列表