百度云资源论坛

 找回密码
 立即注册
搜索

龙牌之谜 Journey.to.China.The.Mystery.of.Iron.Mask.2019.1080p.US.BluRay.x...

[复制链接]
百度云电影 发表于 2020-11-16 10:38:32 | 显示全部楼层 |阅读模式
帖子完整标题:龙牌之谜 Journey.to.China.The.Mystery.of.Iron.Mask.2019.1080p.US.BluRay.x264.DTS-HD.MA.5.1-MT 22.07GB


[/url]

◎译  名 龙牌之谜/Journey to China: The Secret of the Seal of the Dragon/Mystery of Dragon's Seal/Viy 2/Вий 2/Тайна Печати дракона: Путешествие в Китай/中国游记:龙牌之谜/魔鬼的精神2
◎片  名 Tayna pechati drakona
◎年  代 2019
◎产  地 俄罗斯,中国大陆,美国
◎类  别 动作 / 奇幻 / 冒险
◎语  言 英语,俄语,汉语普通话
◎上映日期 2019-08-16(中国大陆)
◎IMDb评分  4.6/10 from 2889 users
◎  
◎豆瓣评分 3.6/10 from 14558 users
◎ 
◎片  长 120分钟
◎导  演 伊哥·斯坦普陈科 Oleg Stepchenko
◎编  剧 阿列克谢·彼得鲁欣 Alexey A. Petrukhin / 伊哥·斯坦普陈科 Oleg Stepchenko
◎主  演 成龙 Jackie Chan
       阿诺·施瓦辛格 Arnold Schwarzenegger
       杰森·弗莱明 Jason Flemyng
       姚星彤 Xingtong Yao
       马丽 Li Ma
       李彧 Yu Li
       刘智福 Lance Luu
       刘智堂 Charles Luu
       刘智满 Mark Luu
       李萌萌 Mengmeng Li
       安娜·邱丽娜 Anna Churina
       尤里·科洛科利尼科夫 Yuri Kolokolnikov
       巴维尔·沃利亚 Pavel Volya
       克里斯托弗·法里班克 Christopher Fairbank
       马丁·科勒巴 Martin Klebba
       查尔斯·丹斯 Charles Dance
       鲁特格尔·哈尔 Rutger Hauer
       巴雷特·科茨 Barret Coates
       伊戈尔·日日金 Igor Jijikin
       娜露潘格慕·柴辛 Narupornkamol Chaisang
       安德烈·梅尔兹利金 Andrey Merzlikin
       维伦·巴比切夫 Vilen Babichev
       苼楠塔茬·塔纳潘披散 Sananthachat Thanapatpisal
       彼得·拉斐尔森 Peter Rafelson
       尼基塔·塔拉索夫 Nikita Tarasov
       阿列克谢·彼得鲁欣 Alexey A. Petrukhin
       葵咪莎拉·普碟 Kemisara Paladesh
       安东尼·加瓦德 Anthony Gavard
       马蒂厄·雅克 Mathieu Jaquet
       莱安德罗·梅厄·马丁内斯 Leandro Mayor Martinez
       赵婉瑜 Wanyu Zhao
       梁新展 Xinzhan Liang
       李建桥 Lijianqiao
       查雅妮·臣姗卡维 Chayanit Chansangavej

◎标  签 动作 | 奇幻 | 中国 | 魔幻 | 冒险 | 2019 | 俄罗斯 | 阿诺德·施瓦辛格

◎简  介

  电影《龙牌之谜》讲述了古老的东方传说——龙王在睡觉的时候睫毛长到地里能够长出茶叶。龙王把法力封印在龙牌里,并把这种力量赋予了替他照料睫毛的白魔法大师(成龙饰)和他的女儿成兰(姚星彤饰)。邪恶的黑魔法师将白魔法大师和成兰关进了异国监狱,龙王也陷入了沉睡,以茶叶为生的广大村民从此生活在水深火热之中……
Video
ID                                       : 1
Format                                   : AVC
Format/Info                              : Advanced Video Codec
Format profile                           :
Format settings                          : CABAC / 4 Ref Frames
Format settings, CABAC                   : Yes
Format settings, Reference frames        : 4 frames
Codec ID                                 : V_MPEG4/ISO/AVC
Duration                                 : 2 h 0 min
Bit rate                                 : 22.0 Mb/s
Width                                    : 1 920 pixels
Height                                   : 1 014 pixels
Display aspect ratio                     : 1.893
Frame rate mode                          : Constant
Frame rate                               : 23.976 (24000/1001/189150) FPS
Color space                              : YUV
Chroma subsampling                       : 4:2:0
Bit depth                                : 8 bits
Scan type                                : Progressive
Bits/(Pixel*Frame)                       : 0.471
Stream size                              : 18.5 GiB (84%)
Writing library                          : x264 core 157 r2938 2b00a84  Mod
Encoding settings                        : cabac=1 / ref=4 / deblock=1:-3:-3 / analyse=0x3:0x133 / me=umh / subme=10 / psy=1 / psy_rd=1.05:0.00 / mixed_ref=1 / me_range=32 / chroma_me=1 / trellis=2 / 8x8dct=1 / cqm=0 / deadzone=21,11 / fast_pskip=0 / chroma_qp_offset=-2 / threads=12 / lookahead_threads=2 / sliced_threads=0 / nr=0 / decimate=0 / interlaced=0 / bluray_compat=0 / constrained_intra=0 / bframes=8 / b_pyramid=2 / b_adapt=2 / b_bias=0 / direct=3 / weightb=1 / open_gop=0 / weightp=2 / keyint=250 / keyint_min=24 / scenecut=40 / intra_refresh=0 / rc_lookahead=250 / rc=crf / mbtree=0 / crf=16.8 / qcomp=0.60 / qpmin=0 / qpmax=69 / qpstep=4 / vbv_maxrate=62500 / vbv_bufsize=78125 / crf_max=0.0 / nal_hrd=none / filler=0 / ip_ratio=1.30 / pb_ratio=1.20 / aq=3:0.80
Language                                 : English
Default                                  : Yes
Forced                                   : No
Color range                              : Limited
Color primaries                          : BT.709
Matrix coefficients                      : BT.709

Audio
ID                                       : 2
Format                                   : DTS XLL
Format/Info                              : Digital Theater Systems
Commercial name                          : DTS-HD Master Audio
Codec ID                                 : A_DTS
Duration                                 : 2 h 0 min
Bit rate mode                            : Variable
Bit rate                                 : 4 173 kb/s
Channel(s)                               : 6 channels
Channel layout                           : C L R Ls Rs LFE
Sampling rate                            : 48.0 kHz
Frame rate                               : 93.750 FPS (512 SPF)
Bit depth                                : 24 bits
Compression mode                         : Lossless
Stream size                              : 3.52 GiB (16%)
Language                                 : English
Default                                  : Yes
Forced                                   : No

Text #1
ID                                       : 3
Format                                   : UTF-8
Codec ID                                 : S_TEXT/UTF8
Codec ID/Info                            : UTF-8 Plain Text
Duration                                 : 1 h 52 min
Bit rate                                 : 45 b/s
Count of elements                        : 1255
Stream size                              : 37.6 KiB (0%)
Title                                    : SRT
Language                                 : English
Default                                  : Yes
Forced                                   : No

Text #2
ID                                       : 4
Format                                   : PGS
Muxing mode                              : zlib
Codec ID                                 : S_HDMV/PGS
Codec ID/Info                            : Picture based subtitle format used on BDs/HD-DVDs
Duration                                 : 1 h 52 min
Bit rate                                 : 32.3 kb/s
Count of elements                        : 2929
Stream size                              : 25.9 MiB (0%)
Language                                 : English
Default                                  : No
Forced                                   : No

Menu
00:00:00.000                             : en:Chapter 01
00:06:33.852                             : en:Chapter 02
00:15:25.049                             : en:Chapter 03
00:21:03.304                             : en:Chapter 04
00:26:21.121                             : en:Chapter 05
00:34:27.774                             : en:Chapter 06
00:39:21.109                             : en:Chapter 07
00:45:38.361                             : en:Chapter 08
00:53:41.760                             : en:Chapter 09
01:00:56.444                             : en:Chapter 10
01:07:25.416                             : en:Chapter 11
01:14:35.971                             : en:Chapter 12
01:22:15.305                             : en:Chapter 13
01:30:40.644                             : en:Chapter 14
01:38:36.911                             : en:Chapter 15
01:51:48.619                             : en:Chapter 16
[/url][/url][/url]



                                                                                                                                                                                                        
                                                                                                                                                                                                                                                                                                                                                                                                                                                                                                                                                                                                                                                                                                                                                                                                                                                         92c6e631d67e443568841e4f614d1830.zip (55.88 KB, 下载次数: 0)

回复

使用道具 举报

小黑屋|百度云资源论坛 |网站地图

本网站所有资源来自网络,如无意中侵犯了您的权益,请发邮件至 [email protected],立即清除相关链接

GMT+8, 2020-12-3 03:25 , Processed in 0.107640 second(s), 23 queries .

Powered by Discuz! X3.2

© 2001-2013 Comsenz Inc.

快速回复 返回顶部 返回列表