百度云资源论坛

 找回密码
 立即注册
搜索

无名者的攻击 Attack.of.the.Unknown.2020.1080p.BluRay.x264-PiGNUS 9.89GB

[复制链接]
百度云资源 发表于 2020-11-16 10:38:32 | 显示全部楼层 |阅读模式
帖子完整标题:无名者的攻击 Attack.of.the.Unknown.2020.1080p.BluRay.x264-PiGNUS 9.89GB


[/url]

◎译  名 无名者的攻击
◎片  名 Attack of the Unknown
◎年  代 2020
◎产  地 美国
◎类  别 动作 / 科幻 / 恐怖
◎语  言 英语
◎上映日期 2020-08-28(美国)
◎IMDb评分  5.4/10 from 1425 users
◎  
◎豆瓣评分 /10 from 0 users
◎ 
◎片  长 103分钟
◎导  演 布兰登·萨拉格尔 Brandon Slagle
◎编  剧 布兰登·萨拉格尔 Brandon Slagle
◎主  演 塔拉·雷德 Tara Reid
       理查德·格里克 Richard Grieco
       罗伯特·拉萨多 Robert LaSardo
       丹尼安·詹布隆 Dennyann Giambrone

◎标  签 美国 | 科幻 | 恐怖 | 2020 | 2019 | 惊悚 | 血腥 | 理查德·格里克

◎简  介

  一个运送恶性犯罪集团老板的特警队在灾难性的外星人入侵期间被困在县拘留中心。
Video
ID                                       : 1
Format                                   : AVC
Format/Info                              : Advanced Video Codec
Format profile                           :
Format settings                          : CABAC / 5 Ref Frames
Format settings, CABAC                   : Yes
Format settings, Reference frames        : 5 frames
Codec ID                                 : V_MPEG4/ISO/AVC
Duration                                 : 1 h 43 min
Bit rate                                 : 10.2 Mb/s
Width                                    : 1 920 pixels
Height                                   : 808 pixels
Display aspect ratio                     : 2.40:1
Frame rate mode                          : Constant
Frame rate                               : 23.976 (24000/1001/189150) FPS
Color space                              : YUV
Chroma subsampling                       : 4:2:0
Bit depth                                : 8 bits
Scan type                                : Progressive
Bits/(Pixel*Frame)                       : 0.273
Stream size                              : 7.34 GiB (74%)
Writing library                          : x264 core 161 r3027 4121277
Encoding settings                        : cabac=1 / ref=5 / deblock=1:-3:-3 / analyse=0x3:0x133 / me=umh / subme=9 / psy=1 / psy_rd=1.00:0.00 / mixed_ref=1 / me_range=16 / chroma_me=1 / trellis=2 / 8x8dct=1 / cqm=0 / deadzone=21,11 / fast_pskip=1 / chroma_qp_offset=-2 / threads=25 / lookahead_threads=2 / sliced_threads=0 / nr=0 / decimate=1 / interlaced=0 / bluray_compat=0 / constrained_intra=0 / bframes=3 / b_pyramid=2 / b_adapt=2 / b_bias=0 / direct=3 / weightb=1 / open_gop=0 / weightp=2 / keyint=250 / keyint_min=23 / scenecut=40 / intra_refresh=0 / rc_lookahead=60 / rc=crf / mbtree=1 / crf=15.5 / qcomp=0.60 / qpmin=0 / qpmax=69 / qpstep=4 / ip_ratio=1.40 / aq=1:1.00
Language                                 : English
Default                                  : Yes
Forced                                   : No

Audio
ID                                       : 2
Format                                   : DTS XLL
Format/Info                              : Digital Theater Systems
Commercial name                          : DTS-HD Master Audio
Codec ID                                 : A_DTS
Duration                                 : 1 h 43 min
Bit rate mode                            : Variable
Bit rate                                 : 3 511 kb/s
Channel(s)                               : 6 channels
Channel layout                           : C L R Ls Rs LFE
Sampling rate                            : 48.0 kHz
Frame rate                               : 93.750 FPS (512 SPF)
Bit depth                                : 24 bits
Compression mode                         : Lossless
Stream size                              : 2.54 GiB (26%)
Language                                 : English
Default                                  : Yes
Forced                                   : No

Text
ID                                       : 3
Format                                   : PGS
Muxing mode                              : zlib
Codec ID                                 : S_HDMV/PGS
Codec ID/Info                            : Picture based subtitle format used on BDs/HD-DVDs
Duration                                 : 1 h 39 min
Bit rate                                 : 30.6 kb/s
Count of elements                        : 2908
Stream size                              : 21.7 MiB (0%)
Title                                    : English SDH
Language                                 : English
Default                                  : No
Forced                                   : No

Menu
00:00:00.000                             : en:Chapter 01
00:13:24.637                             : en:Chapter 02
00:22:39.650                             : en:Chapter 03
00:32:32.450                             : en:Chapter 04
00:44:11.482                             : en:Chapter 05
00:55:32.496                             : en:Chapter 06
01:05:45.400                             : en:Chapter 07
01:25:26.288                             : en:Chapter 08
01:39:33.634                             : en:Chapter 09
[/url]



                                                                                                                                                                                                        
                                                                                                                                                                                                                                                                                                                                                                                                                                                                                                                                                                                                                                                                                                                                                                                                                                                         bb1a8d3d8364abd7ca574a3a5da6f07e.zip (50.2 KB, 下载次数: 0)

回复

使用道具 举报

小黑屋|百度云资源论坛 |网站地图

本网站所有资源来自网络,如无意中侵犯了您的权益,请发邮件至 [email protected],立即清除相关链接

GMT+8, 2020-12-3 01:55 , Processed in 0.116936 second(s), 23 queries .

Powered by Discuz! X3.2

© 2001-2013 Comsenz Inc.

快速回复 返回顶部 返回列表