百度云资源论坛

 找回密码
 立即注册
搜索

杀手 Killer.Weekend.2020.720p.BluRay.x264-PiGNUS 2.79GB

[复制链接]
百度云电影 发表于 2020-11-16 10:02:30 | 显示全部楼层 |阅读模式
帖子完整标题:杀手 Killer.Weekend.2020.720p.BluRay.x264-PiGNUS 2.79GB


[/url]

◎译  名 杀手/Dangerous Match
◎片  名 Killer Weekend
◎年  代 2020
◎产  地 美国
◎类  别 惊悚
◎语  言 英语
◎上映日期 2020-03-01(美国)
◎IMDb评分  3.7/10 from 71 users
◎  
◎豆瓣评分 /10 from 0 users
◎ 
◎导  演 杰米琳·利普曼 Jamielyn Lippman
◎编  剧 Travis Romero
◎主  演 迈克尔·比恩 Michael Biehn
       珍妮弗·布兰克 Jennifer Blanc-Biehn
       斯温·特梅尔 Swen Temmel
       理查德·古恩 Richard Gunn
       卡蒂琳·基茨 Caitlin Keats
       凡妮莎·奇玛 Vanessa Zima
       安迪·达沃利 Andy Davoli
       杰西米·杰西卡·安东尼 Jasmine Jessica Anthony

◎标  签 迈克尔·比恩 | 美国电影 | 惊悚 | [歐美]

◎简  介

  A sexy young coed enjoys a lavish lifestyle thanks to a sugar daddy dating app, accessing their money by having them killed. She soon meets her match, however, in her new rich, handsome boyfriend - who happens to also be a serial [email?protected]www.molikan.com
Video
ID                                       : 1
Format                                   : AVC
Format/Info                              : Advanced Video Codec
Format profile                           :
Format settings                          : CABAC / 8 Ref Frames
Format settings, CABAC                   : Yes
Format settings, Reference frames        : 8 frames
Codec ID                                 : V_MPEG4/ISO/AVC
Duration                                 : 1 h 22 min
Bit rate                                 : 4 176 kb/s
Width                                    : 1 280 pixels
Height                                   : 720 pixels
Display aspect ratio                     : 16:9
Frame rate mode                          : Constant
Frame rate                               : 23.976 (24000/1001/189150) FPS
Color space                              : YUV
Chroma subsampling                       : 4:2:0
Bit depth                                : 8 bits
Scan type                                : Progressive
Bits/(Pixel*Frame)                       : 0.189
Stream size                              : 2.41 GiB (86%)
Writing library                          : x264 core 161 r3027 4121277
Encoding settings                        : cabac=1 / ref=8 / deblock=1:-3:-3 / analyse=0x3:0x133 / me=umh / subme=9 / psy=1 / psy_rd=1.00:0.00 / mixed_ref=1 / me_range=16 / chroma_me=1 / trellis=2 / 8x8dct=1 / cqm=0 / deadzone=21,11 / fast_pskip=1 / chroma_qp_offset=-2 / threads=22 / lookahead_threads=1 / sliced_threads=0 / nr=0 / decimate=1 / interlaced=0 / bluray_compat=0 / constrained_intra=0 / bframes=3 / b_pyramid=2 / b_adapt=2 / b_bias=0 / direct=3 / weightb=1 / open_gop=0 / weightp=2 / keyint=250 / keyint_min=23 / scenecut=40 / intra_refresh=0 / rc_lookahead=60 / rc=crf / mbtree=1 / crf=14.5 / qcomp=0.60 / qpmin=0 / qpmax=69 / qpstep=4 / ip_ratio=1.40 / aq=1:1.00
Language                                 : English
Default                                  : Yes
Forced                                   : No

Audio
ID                                       : 2
Format                                   : AC-3
Format/Info                              : Audio Coding 3
Commercial name                          : Dolby Digital
Codec ID                                 : A_AC3
Duration                                 : 1 h 22 min
Bit rate mode                            : Constant
Bit rate                                 : 640 kb/s
Channel(s)                               : 6 channels
Channel layout                           : L R C LFE Ls Rs
Sampling rate                            : 48.0 kHz
Frame rate                               : 31.250 FPS (1536 SPF)
Compression mode                         : Lossy
Stream size                              : 379 MiB (13%)
Language                                 : English
Service kind                             : Complete Main
Default                                  : Yes
Forced                                   : No

Text
ID                                       : 3
Format                                   : PGS
Muxing mode                              : zlib
Codec ID                                 : S_HDMV/PGS
Codec ID/Info                            : Picture based subtitle format used on BDs/HD-DVDs
Duration                                 : 1 h 19 min
Bit rate                                 : 40.2 kb/s
Count of elements                        : 2238
Stream size                              : 22.9 MiB (1%)
Title                                    : English SDH
Language                                 : English
Default                                  : No
Forced                                   : No

Menu
00:00:00.000                             : en:Chapter 01
00:09:06.713                             : en:Chapter 02
00:19:54.693                             : en:Chapter 03
00:29:13.669                             : en:Chapter 04
00:40:26.341                             : en:Chapter 05
00:50:25.397                             : en:Chapter 06
00:58:46.732                             : en:Chapter 07
01:09:57.026                             : en:Chapter 08
01:19:44.363                             : en:Chapter 09
[/url]



                                                                                                                                                                                                        
                                                                                                                                                                                                                                                                                                                                                                                                                                                                                                                                                                                                                                                                                                                                                                                                                                                         1a1f35463315acd9d9c59d96e1b55d15.zip (28.62 KB, 下载次数: 0)

回复

使用道具 举报

小黑屋|百度云资源论坛 |网站地图

本网站所有资源来自网络,如无意中侵犯了您的权益,请发邮件至 [email protected],立即清除相关链接

GMT+8, 2020-11-27 08:01 , Processed in 0.102723 second(s), 23 queries .

Powered by Discuz! X3.2

© 2001-2013 Comsenz Inc.

快速回复 返回顶部 返回列表