百度云资源论坛

 找回密码
 立即注册
搜索

我们是国王 We.the.Kings.2018.720p.BluRay.x264-PiGNUS 2.85GB

[复制链接]
百度云电影 发表于 2020-11-16 10:02:30 | 显示全部楼层 |阅读模式
帖子完整标题:我们是国王 We.the.Kings.2018.720p.BluRay.x264-PiGNUS 2.85GB


[/url]

◎译  名 我们是国王
◎片  名 We the Kings
◎年  代 2018
◎产  地 英国
◎类  别 惊悚
◎语  言 英语
◎上映日期 2018-09-28(英国)
◎IMDb评分  8.3/10 from 57 users
◎  
◎豆瓣评分 /10 from 0 users
◎ 
◎片  长 91分钟
◎导  演 劳伦?麦肯齐 Lauren Mackenzie
◎编  剧 劳伦?麦肯齐 Lauren Mackenzie
◎主  演 艾略特·詹姆斯·朗格里奇 Elliot James Langridge
       提摩西·韦斯特 Timothy West
       阿曼达·阿宾顿 Amanda Abbington
       杰森·休斯 Jason Hughes

◎标  签 英国电影 | 未上映或无资源 | 【英国】 | 2010s

◎简  介

  A contemporary thriller focusing on a fostered teenager who's developed a vendetta against the former guardian of his foster brother. His actions, in redemption, spiral out of control leaving him in a position to hide from the rest of society. Under the assumption that his new hide-out space is unoccupied, he soon develops further problems than he anticipated.
Video
ID                                       : 1
Format                                   : AVC
Format/Info                              : Advanced Video Codec
Format profile                           :
Format settings                          : CABAC / 8 Ref Frames
Format settings, CABAC                   : Yes
Format settings, Reference frames        : 8 frames
Codec ID                                 : V_MPEG4/ISO/AVC
Duration                                 : 1 h 31 min
Bit rate                                 : 3 802 kb/s
Width                                    : 1 280 pixels
Height                                   : 536 pixels
Display aspect ratio                     : 2.40:1
Frame rate mode                          : Constant
Frame rate                               : 23.976 (24000/1001/189150) FPS
Color space                              : YUV
Chroma subsampling                       : 4:2:0
Bit depth                                : 8 bits
Scan type                                : Progressive
Bits/(Pixel*Frame)                       : 0.231
Stream size                              : 2.43 GiB (85%)
Writing library                          : x264 core 161 r3027 4121277
Encoding settings                        : cabac=1 / ref=8 / deblock=1:-3:-3 / analyse=0x3:0x133 / me=umh / subme=9 / psy=1 / psy_rd=1.00:0.00 / mixed_ref=1 / me_range=16 / chroma_me=1 / trellis=2 / 8x8dct=1 / cqm=0 / deadzone=21,11 / fast_pskip=1 / chroma_qp_offset=-2 / threads=17 / lookahead_threads=1 / sliced_threads=0 / nr=0 / decimate=1 / interlaced=0 / bluray_compat=0 / constrained_intra=0 / bframes=3 / b_pyramid=2 / b_adapt=2 / b_bias=0 / direct=3 / weightb=1 / open_gop=0 / weightp=2 / keyint=250 / keyint_min=23 / scenecut=40 / intra_refresh=0 / rc_lookahead=60 / rc=crf / mbtree=1 / crf=14.5 / qcomp=0.60 / qpmin=0 / qpmax=69 / qpstep=4 / ip_ratio=1.40 / aq=1:1.00
Language                                 : English
Default                                  : Yes
Forced                                   : No

Audio
ID                                       : 2
Format                                   : AC-3
Format/Info                              : Audio Coding 3
Commercial name                          : Dolby Digital
Codec ID                                 : A_AC3
Duration                                 : 1 h 31 min
Bit rate mode                            : Constant
Bit rate                                 : 640 kb/s
Channel(s)                               : 6 channels
Channel layout                           : L R C LFE Ls Rs
Sampling rate                            : 48.0 kHz
Frame rate                               : 31.250 FPS (1536 SPF)
Compression mode                         : Lossy
Stream size                              : 418 MiB (14%)
Language                                 : English
Service kind                             : Complete Main
Default                                  : Yes
Forced                                   : No

Text
ID                                       : 3
Format                                   : PGS
Muxing mode                              : zlib
Codec ID                                 : S_HDMV/PGS
Codec ID/Info                            : Picture based subtitle format used on BDs/HD-DVDs
Duration                                 : 1 h 30 min
Bit rate                                 : 31.5 kb/s
Count of elements                        : 2752
Stream size                              : 20.4 MiB (1%)
Title                                    : English SDH
Language                                 : English
Default                                  : No
Forced                                   : No

Menu
00:00:00.000                             : en:Chapter 01
00:09:10.550                             : en:Chapter 02
00:21:21.614                             : en:Chapter 03
00:30:55.729                             : en:Chapter 04
00:41:30.655                             : en:Chapter 05
00:51:19.076                             : en:Chapter 06
00:59:53.590                             : en:Chapter 07
01:10:08.496                             : en:Chapter 08
01:20:39.501                             : en:Chapter 09
01:28:05.822                             : en:Chapter 10
[/url]



                                                                                                                                                                                                        
                                                                                                                                                                                                                                                                                                                                                                                                                                                                                                                                                                                                                                                                                                                                                                                                                                                         55e3ed322e505b7c8e7624ed9389c1dd.zip (29.14 KB, 下载次数: 0)

回复

使用道具 举报

小黑屋|百度云资源论坛 |网站地图

本网站所有资源来自网络,如无意中侵犯了您的权益,请发邮件至 [email protected],立即清除相关链接

GMT+8, 2020-12-3 08:25 , Processed in 0.112763 second(s), 23 queries .

Powered by Discuz! X3.2

© 2001-2013 Comsenz Inc.

快速回复 返回顶部 返回列表