百度云资源论坛

 找回密码
 立即注册
搜索

克伦威尔/镇国大将军 Cromwell.1970.720p.BluRay.x264-WoAT 3.88GB

[复制链接]
百度云资源 发表于 2020-11-16 10:02:30 | 显示全部楼层 |阅读模式
帖子完整标题:克伦威尔/镇国大将军 Cromwell.1970.720p.BluRay.x264-WoAT 3.88GB


[/url]

◎译  名 克伦威尔/镇国大将军/雄狮屠龙
◎片  名 Cromwell
◎年  代 1970
◎产  地 英国
◎类  别 剧情 / 传记 / 历史 / 战争
◎语  言 英语
◎上映日期 1970-07-16(英国)
◎IMDb评分  6.9/10 from 5004 users
◎  
◎豆瓣评分 7.6/10 from 179 users
◎ 
◎片  长 Argentina: 139 分钟
◎导  演 肯·休斯 Ken Hughes
◎编  剧 肯·休斯 Ken Hughes
◎主  演 理查德·哈里斯 Richard Harris
       亚历克·吉尼斯 Alec Guinness
       罗伯特·莫利 Robert Morley

◎标  签 英国 | 历史 | 传记 | 战争 | 英国电影 | 1970 | 革命 | 剧情

◎简  介

  展现了17世纪英国资产阶级革命(也可以说是世界历史)中最重要的一段历史时期,改革与保守势力之间的一场大决战。影片描述了奥利弗·克伦威尔推动并领导消弱专制王权、确立议会绝对权威斗争中的作用。从而最终奠定了延续至今的西方政体制度的基础。

◎获奖情况

  第43届奥斯卡金像奖 ?(1971)
  最佳服装设计 威托里奥·尼诺·诺瓦雷斯
  最佳原创配乐(提名) 弗兰克·科尔戴尔
Video
ID                                       : 1
Format                                   : AVC
Format/Info                              : Advanced Video Codec
Format profile                           :
Format settings                          : CABAC / 8 Ref Frames
Format settings, CABAC                   : Yes
Format settings, Reference frames        : 8 frames
Codec ID                                 : V_MPEG4/ISO/AVC
Duration                                 : 2 h 19 min
Bit rate                                 : 3 325 kb/s
Width                                    : 1 280 pixels
Height                                   : 534 pixels
Display aspect ratio                     : 2.40:1
Frame rate mode                          : Constant
Frame rate                               : 23.976 (24000/1001/189150) FPS
Color space                              : YUV
Chroma subsampling                       : 4:2:0
Bit depth                                : 8 bits
Scan type                                : Progressive
Bits/(Pixel*Frame)                       : 0.203
Stream size                              : 3.24 GiB (84%)
Writing library                          : x264 core 161 r3027 4121277
Encoding settings                        : cabac=1 / ref=8 / deblock=1:-3:-3 / analyse=0x3:0x133 / me=umh / subme=9 / psy=1 / psy_rd=1.00:0.00 / mixed_ref=1 / me_range=32 / chroma_me=1 / trellis=2 / 8x8dct=1 / cqm=0 / deadzone=21,11 / fast_pskip=0 / chroma_qp_offset=-2 / threads=12 / lookahead_threads=2 / sliced_threads=0 / nr=0 / decimate=0 / interlaced=0 / bluray_compat=0 / constrained_intra=0 / bframes=9 / b_pyramid=2 / b_adapt=2 / b_bias=0 / direct=3 / weightb=1 / open_gop=0 / weightp=2 / keyint=250 / keyint_min=23 / scenecut=40 / intra_refresh=0 / rc=crf / mbtree=0 / crf=19.5 / qcomp=0.60 / qpmin=0 / qpmax=69 / qpstep=4 / ip_ratio=1.40 / pb_ratio=1.30 / aq=3:0.88
Default                                  : Yes
Forced                                   : No
Color range                              : Limited
Matrix coefficients                      : BT.709

Audio
ID                                       : 2
Format                                   : AC-3
Format/Info                              : Audio Coding 3
Commercial name                          : Dolby Digital
Codec ID                                 : A_AC3
Duration                                 : 2 h 19 min
Bit rate mode                            : Constant
Bit rate                                 : 640 kb/s
Channel(s)                               : 2 channels
Channel layout                           : L R
Sampling rate                            : 48.0 kHz
Frame rate                               : 31.250 FPS (1536 SPF)
Compression mode                         : Lossy
Stream size                              : 639 MiB (16%)
Title                                    : English
Language                                 : English
Service kind                             : Complete Main
Default                                  : No
Forced                                   : No

Text #1
ID                                       : 3
Format                                   : PGS
Muxing mode                              : zlib
Codec ID                                 : S_HDMV/PGS
Codec ID/Info                            : Picture based subtitle format used on BDs/HD-DVDs
Duration                                 : 2 h 19 min
Bit rate                                 : 27.3 kb/s
Count of elements                        : 2749
Stream size                              : 27.2 MiB (1%)
Title                                    : German
Language                                 : German
Default                                  : No
Forced                                   : No

Text #2
ID                                       : 4
Format                                   : PGS
Muxing mode                              : zlib
Codec ID                                 : S_HDMV/PGS
Codec ID/Info                            : Picture based subtitle format used on BDs/HD-DVDs
Duration                                 : 2 h 19 min
Bit rate                                 : 25.5 kb/s
Count of elements                        : 2675
Stream size                              : 25.3 MiB (1%)
Title                                    : English
Language                                 : English
Default                                  : No
Forced                                   : No

Menu
00:00:00.000                             : en:Chapter 01
00:03:32.087                             : en:Chapter 02
00:18:49.211                             : en:Chapter 03
00:26:49.775                             : en:Chapter 04
00:40:40.021                             : en:Chapter 05
00:57:12.596                             : en:Chapter 06
01:10:13.126                             : en:Chapter 07
01:24:23.141                             : en:Chapter 08
01:39:07.024                             : en:Chapter 09
01:51:08.745                             : en:Chapter 10
02:04:45.478                             : en:Chapter 11
[/url]



                                                                                                                                                                                                        
                                                                                                                                                                                                                                                                                                                                                                                                                                                                                                                                                                                                                                                                                                                                                                                                                                                         eed57b11d4f6e180f9fea1ce0e5a0548.zip (39.48 KB, 下载次数: 0)

回复

使用道具 举报

小黑屋|百度云资源论坛 |网站地图

本网站所有资源来自网络,如无意中侵犯了您的权益,请发邮件至 [email protected],立即清除相关链接

GMT+8, 2020-11-27 07:39 , Processed in 0.099706 second(s), 23 queries .

Powered by Discuz! X3.2

© 2001-2013 Comsenz Inc.

快速回复 返回顶部 返回列表