百度云资源论坛

 找回密码
 立即注册
搜索

少林英雄 The.Heroes.1980.DUBBED.UNCUT.720p.BluRay.x264-PussyFoot 5.46GB

[复制链接]
百度云电影 发表于 2020-11-16 10:02:30 | 显示全部楼层 |阅读模式
帖子完整标题:少林英雄 The.Heroes.1980.DUBBED.UNCUT.720p.BluRay.x264-PussyFoot 5.46GB


[/url]

◎译  名 Story of Chivalry/The Heroes/The Shaolin Heroes/The Unforgiven of Shaolin/侠骨英雄传/英雄
◎片  名 少林英雄
◎年  代 1980
◎产  地 中国台湾,中国香港
◎类  别 剧情 / 动作 / 武侠 / 古装
◎语  言 汉语普通话,粤语
◎上映日期 1980-10-23
◎IMDb评分  7.2/10 from 90 users
◎  
◎豆瓣评分 7.6/10 from 216 users
◎ 
◎片  长 106分钟
◎导  演 午马 Wu Ma / 鲍学礼 Hsueh Li Pao
◎编  剧 倪匡 Kuang Ni
◎主  演 狄龙 Lung Ti
       李修贤 Danny Lee
       施思 Szu Shih
       午马 Wu Ma
       薛汉 Han Hsieh
       蔡弘 Hung Tsai
       陈惠敏 Wai-Man Chan
       王钟 Chung Wang

◎标  签 狄龙 | 武侠 | 香港 | 午马 | 邵氏 | 香港电影 | 1980 | 李修贤

◎简  介

  满清年间,朝延视少林寺的正义之士为眼中钉,派官兵剿灭之,率领清兵的副总管高飞扬原是少林大师兄。少林被灭,各弟子遭拘禁,高飞扬将之劳役,实则藉此令各人强健体魄,精练武功,高表面上投效清廷,其实是在暗中协助同门光复少林,惜其心意不被了解,其后少林弟子逃出反抗,杀死皇帝时,高亦被杀,至死亦无人知其功劳,可谓最能忍辱负重的大英雄。

◎获奖情况

  第17届台北金马影展 ?(1980)
  金马奖最佳剧情片(提名)
  金马奖最佳男主角(提名) 狄龙
Video
ID                                       : 1
Format                                   : AVC
Format/Info                              : Advanced Video Codec
Format profile                           :
Format settings                          : CABAC / 8 Ref Frames
Format settings, CABAC                   : Yes
Format settings, Reference frames        : 8 frames
Codec ID                                 : V_MPEG4/ISO/AVC
Duration                                 : 1 h 46 min
Bit rate                                 : 7 042 kb/s
Width                                    : 1 280 pixels
Height                                   : 534 pixels
Display aspect ratio                     : 2.40:1
Frame rate mode                          : Constant
Frame rate                               : 23.976 (24000/1001/189150) FPS
Color space                              : YUV
Chroma subsampling                       : 4:2:0
Bit depth                                : 8 bits
Scan type                                : Progressive
Bits/(Pixel*Frame)                       : 0.430
Stream size                              : 5.22 GiB (95%)
Writing library                          : x264 core 161 r3018 db0d417
Encoding settings                        : cabac=1 / ref=8 / deblock=1:-3:-3 / analyse=0x3:0x133 / me=umh / subme=9 / psy=1 / psy_rd=1.00:0.00 / mixed_ref=1 / me_range=16 / chroma_me=1 / trellis=2 / 8x8dct=1 / cqm=0 / deadzone=21,11 / fast_pskip=0 / chroma_qp_offset=-2 / threads=17 / lookahead_threads=1 / sliced_threads=0 / nr=0 / decimate=1 / interlaced=0 / bluray_compat=0 / constrained_intra=0 / bframes=3 / b_pyramid=2 / b_adapt=2 / b_bias=0 / direct=3 / weightb=1 / open_gop=0 / weightp=2 / keyint=250 / keyint_min=23 / scenecut=40 / intra_refresh=0 / rc_lookahead=60 / rc=crf / mbtree=1 / crf=20.5 / qcomp=0.60 / qpmin=0 / qpmax=69 / qpstep=4 / ip_ratio=1.40 / aq=1:1.00
Language                                 : English
Default                                  : Yes
Forced                                   : No

Audio
ID                                       : 2
Format                                   : FLAC
Format/Info                              : Free Lossless Audio Codec
Codec ID                                 : A_FLAC
Duration                                 : 1 h 46 min
Bit rate mode                            : Variable
Bit rate                                 : 332 kb/s
Channel(s)                               : 1 channel
Channel layout                           : C
Sampling rate                            : 48.0 kHz
Frame rate                               : 11.719 FPS (4096 SPF)
Bit depth                                : 16 bits
Compression mode                         : Lossless
Stream size                              : 252 MiB (4%)
Writing library                          : libFLAC 1.3.2 (UTC 2017-01-01)
Language                                 : English
Default                                  : Yes
Forced                                   : No

Menu
00:00:00.000                             : en:Kapitel 01
00:01:39.766                             : en:Kapitel 02
00:13:34.731                             : en:Kapitel 03
00:19:27.792                             : en:Kapitel 04
00:29:22.135                             : en:Kapitel 05
00:38:30.683                             : en:Kapitel 06
00:51:06.730                             : en:Kapitel 07
00:58:09.444                             : en:Kapitel 08
01:03:05.615                             : en:Kapitel 09
01:14:59.787                             : en:Kapitel 10
01:23:52.945                             : en:Kapitel 11
01:25:43.889                             : en:Kapitel 12
01:44:44.528                             : en:Kapitel 13
[/url]



                                                                                                                                                                                                        
                                                                                                                                                                                                                                                                                                                                                                                                                                                                                                                                                                                                                                                                                                                                                                                                                                                         2bce2d43b9d87dee82f597c3fa5a3ddc.zip (28.05 KB, 下载次数: 0)

回复

使用道具 举报

小黑屋|百度云资源论坛 |网站地图

本网站所有资源来自网络,如无意中侵犯了您的权益,请发邮件至 [email protected],立即清除相关链接

GMT+8, 2020-12-3 09:56 , Processed in 0.110571 second(s), 23 queries .

Powered by Discuz! X3.2

© 2001-2013 Comsenz Inc.

快速回复 返回顶部 返回列表